<?xml version="1.0" encoding="UTF-8" standalone="no"?>
<!DOCTYPE svg PUBLIC "-//W3C//DTD SVG 1.1//EN" "http://www.w3.org/Graphics/SVG/1.1/DTD/svg11.dtd">
<svg xmlns="http://www.w3.org/2000/svg"><defs><font id="flaticon" horiz-adv-x="512"><font-face units-per-em="512" ascent="448" descent="-64" x-height="240" cap-height="480"/><missing-glyph horiz-adv-x="512"/><glyph unicode="" glyph-name="banknote" horiz-adv-x="512" d="M502.64 278.624l-160 160C334.704 446.56 323.2 449.744 312.304 447.056 c-5.744 -1.408 -10.88 -4.368 -14.944 -8.432c-3.632 -3.632 -6.368 -8.128 -7.936 -13.152c-7.248 -23.504 -19.776 -43.936 -38.32 -62.464 C226.336 338.256 194.08 319.504 159.952 299.68c-36.224 -20.992 -73.648 -42.752 -104.32 -73.408c-26.064 -26.096 -43.808 -55.12 -54.208 -88.816 c-3.504 -11.376 -0.448 -23.68 7.936 -32.096l160 -160c7.936 -7.936 19.44 -11.12 30.336 -8.432c5.744 1.44 10.88 4.368 14.944 8.432 c3.632 3.632 6.368 8.128 7.936 13.184c7.264 23.504 19.792 43.936 38.352 62.464c24.752 24.752 56.992 43.472 91.152 63.28 c36.192 21.024 73.632 42.784 104.288 73.44c26.064 26.064 43.808 55.12 54.224 88.816C514.08 257.904 511.008 270.256 502.64 278.624zM192 -32 C139.008 20.992 84.992 75.024 32 128c45.472 147.216 242.56 140.784 288 288c52.992 -52.976 107.024 -107.008 160.032 -160 C434.544 108.816 237.456 115.216 192 -32zM312.992 209.6c-5.216 4.368 -10.464 7.344 -15.744 8.816 c-5.248 1.472 -10.496 2.064 -15.808 1.68c-5.248 -0.4 -10.624 -1.6 -16 -3.664c-5.376 -2.096 -10.784 -4.368 -16.224 -7.008 c-8.592 9.872 -17.184 19.632 -25.776 28.688c3.872 3.504 7.632 5.28 11.248 5.408c3.632 0.16 7.12 -0.224 10.432 -1.056 c3.376 -0.848 6.464 -1.568 9.312 -2.128c2.88 -0.56 5.376 0.064 7.568 1.904c2.32 2 3.6 4.592 3.776 7.712 c0.16 3.152 -1.024 6.224 -3.664 9.216c-3.376 3.872 -7.44 6.224 -12.32 7.088c-4.816 0.848 -9.744 0.784 -14.88 -0.336 c-5.056 -1.152 -9.872 -3.056 -14.432 -5.744s-8.224 -5.44 -10.944 -8.128c-1.04 0.992 -2.08 1.968 -3.12 2.944 c-1.152 1.056 -2.592 1.632 -4.32 1.6c-1.744 0 -3.184 -0.752 -4.368 -2.128c-1.152 -1.344 -1.68 -2.912 -1.472 -4.56 c0.16 -1.712 0.848 -3.024 2.032 -4.032c1.04 -0.88 2.08 -1.744 3.12 -2.656c-4.096 -4.944 -7.472 -10.4 -10.128 -16.16 c-2.688 -5.776 -4.288 -11.504 -4.88 -17.056c-0.624 -5.6 -0.032 -10.72 1.68 -15.472c1.712 -4.784 4.88 -8.848 9.504 -12.688 c7.536 -6.256 16.4 -8.912 26.688 -8.32c10.256 0.624 21.312 3.68 33.2 10.064c9.44 -10.912 18.912 -21.744 28.368 -31.808 c-4 -3.376 -7.504 -5.312 -10.592 -5.936c-3.088 -0.656 -5.84 -0.592 -8.336 0.16c-2.496 0.784 -4.816 1.904 -6.944 3.344 c-2.128 1.472 -4.224 2.72 -6.32 3.744c-2.064 1.024 -4.192 1.6 -6.368 1.632s-4.496 -1.024 -7.056 -3.216 c-2.624 -2.288 -3.936 -4.944 -3.936 -7.936c0 -2.976 1.376 -6 4.064 -9.056c2.72 -3.056 6.256 -5.632 10.528 -7.664 s9.104 -3.312 14.416 -3.664c5.312 -0.368 10.912 0.432 16.816 2.624c5.936 2.16 11.808 6.064 17.6 11.872 c2.784 -2.72 5.6 -5.312 8.4 -7.808c1.184 -1.024 2.624 -1.536 4.368 -1.408c1.68 0.064 3.152 0.848 4.32 2.256 c1.184 1.44 1.68 3.024 1.504 4.688c-0.16 1.68 -0.848 2.976 -2 3.904c-2.816 2.256 -5.632 4.624 -8.432 7.12 c4.784 5.872 8.624 12.064 11.472 18.192c2.848 6.16 4.528 12.096 5.088 17.6c0.56 5.536 -0.096 10.528 -1.904 15.056 C320.736 201.872 317.552 205.808 312.992 209.6zM223.536 198.752c-4.528 -0.192 -8.48 1.312 -11.936 4.656 c-1.472 1.408 -2.496 3.12 -3.12 5.152c-0.656 2.032 -0.88 4.256 -0.624 6.688c0.224 2.4 0.944 4.912 2.192 7.44 c1.184 2.528 2.944 5.056 5.184 7.504c8.112 -8.064 16.208 -16.912 24.32 -26.064C233.408 200.752 228.064 198.944 223.536 198.752zM299.008 166.72c-1.44 -2.656 -3.088 -5.024 -5.024 -7.088c-8.976 9.056 -17.936 19.008 -26.88 29.216c2.288 1.024 4.688 2.096 7.28 3.184 s5.184 1.808 7.776 2.256c2.656 0.4 5.28 0.288 7.904 -0.336c2.592 -0.656 5.056 -2.064 7.344 -4.288 c2.256 -2.256 3.68 -4.592 4.256 -7.12c0.624 -2.56 0.656 -5.152 0.224 -7.808C301.424 172.064 300.48 169.408 299.008 166.72zM235.472 93.12h-0.032c-10 -7.68 -19.76 -15.776 -28.8 -24.848 c-8.688 -8.688 -16.544 -17.84 -23.376 -27.184l-10.944 -14.944l0.032 -0.032c-2 -3.12 -1.664 -7.312 1.056 -10.032 c3.12 -3.12 8.224 -3.12 11.36 0c0.48 0.496 0.864 1.024 1.184 1.6l10.224 14c6.336 8.656 13.664 17.184 21.776 25.28 c8.976 8.976 17.296 15.904 27.424 23.6l-0.032 0.032c0.288 0.224 0.56 0.4 0.816 0.656c3.136 3.12 3.136 8.224 0 11.344 C243.264 95.536 238.624 95.664 235.472 93.12zM294.048 324.56c-8.368 -8.368 -17.44 -15.904 -26.848 -23.088 c-0.656 -0.368 -1.312 -0.784 -1.872 -1.376c-3.152 -3.152 -3.152 -8.288 0 -11.44c3.056 -3.088 8 -3.152 11.184 -0.224l0.064 -0.032 c10 7.68 19.744 15.808 28.784 24.848c8.688 8.688 16.528 17.808 23.376 27.152l10.944 15.008l-0.032 0.032 c2.72 3.184 2.592 7.936 -0.4 10.944c-3.152 3.152 -8.256 3.152 -11.408 0c-0.592 -0.592 -1.024 -1.28 -1.408 -1.968l-10.624 -14.56 C309.456 341.152 302.144 332.656 294.048 324.56z"/><glyph unicode="" glyph-name="big58" horiz-adv-x="512" d="M510.096 247.088c-4.432 12.784 -15.808 22.144 -29.504 24.176l-133.216 19.808l-57.904 120.224 C283.376 423.92 270.336 432 256 432c-14.336 0 -27.376 -8.08 -33.472 -20.704l-57.904 -120.224l-133.232 -19.808c-13.68 -2.032 -25.056 -11.392 -29.472 -24.176 c-4.4 -12.816 -1.072 -26.928 8.592 -36.56l97.632 -97.472l-22.64 -135.216C83.2 -35.776 89.104 -49.44 100.672 -57.408 C107.024 -61.776 114.496 -64 121.968 -64c6.144 0 12.304 1.504 17.888 4.496L256 3.024l116.16 -62.528C377.744 -62.496 383.904 -64 390.032 -64 c7.472 0 14.944 2.224 21.312 6.592c11.568 7.968 17.44 21.632 15.152 35.248l-22.656 135.216l97.664 97.472 C511.152 220.176 514.464 234.288 510.096 247.088zM377.408 138.192c-8.192 -8.16 -11.904 -19.664 -10.032 -30.944l22.656 -135.216l-116.16 62.496 c-5.568 3.008 -11.712 4.496 -17.888 4.496c-6.144 0 -12.304 -1.504 -17.872 -4.496l-116.16 -62.496l22.656 135.216 c1.888 11.28 -1.824 22.784 -10.016 30.944l-97.632 97.472l133.216 19.84c12.176 1.808 22.656 9.424 27.888 20.288L256 395.984l57.92 -120.208 c5.248 -10.864 15.712 -18.464 27.872 -20.288l133.248 -19.84L377.408 138.192z"/><glyph unicode="" glyph-name="big59" horiz-adv-x="512" d="M400 448c-32.848 0 -58.656 -22.56 -77.184 -57.376l-0.336 0.192C295.568 338.128 255.504 304 211.616 304h-10.608 H130.496H64c-35.888 0 -64 -35.152 -64 -80c0 -44.88 28.112 -80 64 -80c17.648 -0.064 31.92 -14.336 31.92 -32v-144c0 -17.68 14.336 -32 32 -32h64c17.664 0 32 14.32 32 32 v16c0 16 -16 23.152 -16 32v112c0 0.368 0.256 0.624 0.288 0.992c0.16 2.288 0.784 4.4 1.792 6.32c0.288 0.528 0.592 0.944 0.944 1.408 c1.28 1.904 2.896 3.472 4.864 4.688c0.096 0.064 0.128 0.16 0.224 0.224c0.064 0 0.112 0.064 0.176 0.064 c1.28 0.72 2.816 0.88 4.256 1.28c40.384 -4.288 76.944 -36.88 102.032 -85.968l0.4 0.192C341.44 22.496 367.184 0 400 0 c73.536 0 112 112.688 112 224S473.536 448 400 448zM320 224c0 16.592 0.976 32.624 2.624 48H368c17.664 0 32 -21.504 32 -48c0 -26.528 -14.336 -48 -32 -48h-45.376 C320.976 191.376 320 207.376 320 224zM32 224c0 26.496 14.336 48 32 48h66.496H144h32.224C166.304 260.336 160 243.408 160 224 c0 -19.44 6.304 -36.368 16.224 -48H144H64C46.336 176 32 197.472 32 224zM191.92 -32h-64v144c0 11.664 -3.12 22.56 -8.592 32h11.168v-0.192h48.128 c-1.712 -4.976 -2.704 -10.256 -2.704 -15.808v-112c0 -15.408 8.608 -25.664 13.744 -31.776c0.704 -0.848 1.536 -1.712 2.256 -2.656V-32zM211.616 175.808 H208V176c-17.664 0 -32 21.472 -32 48c0 26.496 14.336 48 32 48h3.616c30.176 0 58.432 11.872 83.296 32.288C290.336 278.528 288 251.248 288 224 c0 -27.344 2.336 -54.72 6.944 -80.496C270.064 163.936 241.792 175.808 211.616 175.808zM400 32c-32.288 0 -60 45.936 -72.656 112H368 c35.872 0 64 35.12 64 80c0 44.848 -28.128 80 -64 80h-40.656C340 370.032 367.712 416 400 416c44.192 0 80 -85.968 80 -192S444.192 32 400 32z"/><glyph unicode="" glyph-name="big60" horiz-adv-x="512" d="M479.68 338.896c-1.536 25.12 -22.192 45.056 -47.68 45.056h-48v16V399.984 c0 26.512 -21.504 48 -48 48H176c-26.512 0 -48 -21.488 -48 -48v-0.016v-16H80c-25.52 0 -46.16 -19.936 -47.696 -45.056H32v-18.928v-16c0 -17.664 14.336 -32 32 -32l0 0v-272 c0 -35.344 28.656 -64 64 -64h256c35.344 0 64 28.656 64 64v272l0 0c17.664 0 32 14.336 32 32v16V338.896H479.68zM160 399.968c0 8.848 7.152 16 16 16h160 c8.848 0 16 -7.152 16 -16v-16H160V399.968zM416 -0.031999999999982c0 -17.632 -14.368 -32 -32 -32H128c-17.648 0 -32 14.368 -32 32v272h320V-0.031999999999982zM448 319.984v-16H64v16V335.968 c0 8.848 7.152 16 16 16h352c8.848 0 16 -7.152 16 -16V319.984zM144 -0.096000000000004h32c8.848 0 16 7.152 16 16v208c0 8.848 -7.152 16 -16 16H144 c-8.848 0 -16 -7.152 -16 -16v-208C128 7.056 135.152 -0.096000000000004 144 -0.096000000000004zM144 223.92h32v-208H144V223.92zM240 -0.096000000000004h32c8.848 0 16 7.152 16 16v208c0 8.848 -7.152 16 -16 16h-32 c-8.848 0 -16 -7.152 -16 -16v-208C224 7.056 231.152 -0.096000000000004 240 -0.096000000000004zM240 223.92h32v-208h-32V223.92zM336 -0.096000000000004h32c8.848 0 16 7.152 16 16v208c0 8.848 -7.152 16 -16 16h-32 c-8.848 0 -16 -7.152 -16 -16v-208C320 7.056 327.152 -0.096000000000004 336 -0.096000000000004zM336 223.92h32v-208h-32V223.92z"/><glyph unicode="" glyph-name="blockade" horiz-adv-x="512" d="M400 240V304c0 79.536 -64.464 144 -144 144c-79.536 0 -144 -64.464 -144 -144v-64c-26.512 0 -48 -21.488 -48 -48v-48v-16v-32v-16c0 -79.536 64.464 -144 144 -144h96 c79.536 0 144 64.464 144 144v16v32v16v48C448 218.528 426.496 240 400 240zM144 304c0 61.856 50.144 112 112 112c61.856 0 112 -50.144 112 -112v-64h-32V303.968 c0 44.192 -35.808 80 -80 80c-44.192 0 -80 -35.808 -80 -80V240H144V304zM320 304v-0.048V240h-128V303.968V304c0 35.344 28.656 64 64 64C291.344 368 320 339.344 320 304zM416 144 v-16v-32v-16c0 -61.744 -50.256 -112 -112 -112h-96c-61.744 0 -112 50.256 -112 112v16v32v16v48c0 8.832 7.168 16 16 16c10.672 0 21.328 0 32 0h224c10.656 0 21.312 0 32 0 c8.816 0 16 -7.168 16 -16V144zM256 144c-17.664 0 -32 -14.32 -32 -32c0 -9.712 5.328 -28.16 10.672 -42.752c4.352 -11.872 9.824 -21.216 21.328 -21.216 c12.512 0 16.976 9.248 21.344 21.056C282.752 83.712 288 102.256 288 112C288 129.68 273.664 144 256 144z"/><glyph unicode="" glyph-name="bubble1" horiz-adv-x="512" d="M256 336c-95.408 0 -176 -51.296 -176 -112c0 -4.416 3.584 -8 8 -8 S96 219.584 96 224c0 51.136 74.768 96 160 96c4.4 0 8 3.584 8 8S260.416 336 256 336zM256 416C114.608 416 0 330.032 0 224c0 -66.032 44.464 -124.256 112.128 -158.816 C112.128 64.752 112 64.464 112 64c0 -28.688 -21.424 -59.568 -30.848 -75.776c0.016 0 0.032 0 0.032 0C80.432 -13.536 80 -15.472 80 -17.504 C80 -25.504 86.48 -32 94.496 -32C96 -32 98.64 -31.6 98.576 -31.776c50 8.192 97.104 54.128 108.048 67.44C222.608 33.312 239.088 32 256 32 c141.36 0 256 85.968 256 192C512 330.032 397.376 416 256 416zM256 64c-14.672 0 -29.728 1.12 -44.736 3.312c-1.552 0.256 -3.104 0.336 -4.64 0.336 c-9.504 0 -18.608 -4.224 -24.736 -11.68c-6.848 -8.336 -26.336 -26.944 -49.36 -40.624c6.24 14.32 11.12 30.368 11.456 46.912 c0.096 1.024 0.144 2.064 0.144 2.944c0 12.032 -6.736 23.024 -17.44 28.496C67.392 123.968 32 172.688 32 224C32 312.224 132.48 384 256 384 c123.488 0 224 -71.776 224 -160C480 135.776 379.504 64 256 64z"/><glyph unicode="" glyph-name="camera6" horiz-adv-x="512" d="M480 352h-14.192c-8.4 0 -16.464 -3.312 -22.464 -9.216L400 300.032V320c0 26.512 -21.504 48 -48 48H48 C21.536 368 0 346.48 0 320v-111.552V64c0 -26.496 21.488 -48 48 -48h304c26.496 0 48 21.504 48 48v19.536l43.344 -42.752c6 -5.904 14.064 -9.216 22.464 -9.216 H480c17.664 0 32 14.32 32 32V320C512 337.68 497.664 352 480 352zM48 48c-8.832 0 -16 7.184 -16 16V320c0 8.848 7.152 16 16 16h304c8.816 0 16 -7.168 16 -16v-256 c0 -8.816 -7.184 -16 -16 -16H48zM480 63.568h-14.192H464l-64 64V128l-16 16v96l80 80h1.808H480V63.568z"/><glyph unicode="" glyph-name="camera7" horiz-adv-x="512" d="M256 287.984c-70.704 0 -128 -57.296 -128 -128c0 -70.688 57.296 -128 128 -128 c70.688 0 128 57.312 128 128C384 230.672 326.688 287.984 256 287.984zM328.88 97.504c-34.496 -40.256 -95.088 -44.912 -135.344 -10.4 c-40.272 34.496 -44.912 95.104 -10.4 135.344c34.48 40.272 95.088 44.912 135.344 10.4C358.72 198.368 363.376 137.744 328.88 97.504zM256 223.984c-35.344 0 -63.984 -28.656 -64 -63.984v-0.032 c0 -4.4 3.584 -8 8 -8s8 3.6 8 8V160c0.016 26.496 21.488 47.984 48 47.984c4.416 0 8 3.584 8 8 S260.416 223.984 256 223.984zM471.872 303.328l-69.344 11.568l-21.968 54.944 C373.216 388.16 355.712 400 336 400H176C156.288 400 138.784 388.16 131.424 369.824L109.472 314.896L40.144 303.328C16.88 299.472 0 279.568 0 256v-240 c0 -26.464 21.536 -48 48 -48h416c26.464 0 48 21.536 48 48V256C512 279.568 495.12 299.472 471.872 303.328zM480 16c0 -8.848 -7.152 -16 -16 -16H48 c-8.848 0 -16 7.152 -16 16V256c0 7.824 5.664 14.496 13.376 15.776l87.104 14.512l28.656 71.648C163.584 364 169.456 368 176 368h160 c6.528 0 12.4 -3.984 14.848 -10.064l28.656 -71.648l87.12 -14.512C474.336 270.496 480 263.824 480 256V16z"/><glyph unicode="" glyph-name="cup4" horiz-adv-x="512" d="M449.776 367.648l-19.44 58.48C426 439.2 413.776 448 400 448H112C98.208 448 86 439.2 81.632 426.128L62.032 367.616 C45.328 366.544 32 352.976 32 336v-48c0 -17.664 14.336 -32 32 -32h16.544l-0.336 -3.536l32 -288C114 -51.712 127.68 -64 144 -64h224 c16.32 0 30 12.288 31.776 28.464l32 288L431.44 256H448c17.664 0 32 14.336 32 32V336C480 353.04 466.56 366.672 449.776 367.648zM112 416h288l16 -48H96L112 416zM368 -32H144l-5.328 48h234.656L368 -32zM375.088 32H136.88L119.104 192h273.776L375.088 32zM394.656 208H117.328L112 256h288L394.656 208zM448 288H64V336h384 V288z"/><glyph unicode="" glyph-name="data3" horiz-adv-x="512" d="M256 448C148.096 448 32 415.472 32 344v-304C32 -31.44 148.096 -64 256 -64c107.888 0 224 32.56 224 104v304 C480 415.472 363.872 448 256 448zM448 40c0 -39.744 -85.968 -72 -192 -72c-106.048 0 -192 32.256 -192 72v59.776C97.056 65.712 176.8 48 256 48 c79.2 0 158.944 17.712 192 51.776V40zM448 136h-0.064c0 -0.16 0.064 -0.336 0.064 -0.496C448 96 362.032 64 256 64c-106.032 0 -192 32 -192 71.504 c0 0.16 0.064 0.336 0.064 0.496H64v59.776C97.056 161.712 176.8 144 256 144c79.2 0 158.944 17.712 192 51.776V136zM448 232h-0.064 c0 -0.16 0.064 -0.336 0.064 -0.496C448 192 362.032 160 256 160c-106.032 0 -192 32 -192 71.504c0 0.16 0.064 0.336 0.064 0.496H64v54.976 C105.936 255.024 182.8 240 256 240c73.2 0 150.064 15.024 192 46.976V232zM256 272C149.952 272 64 304.256 64 344C64 383.776 149.952 416 256 416 c106.032 0 192 -32.224 192 -72C448 304.256 362.032 272 256 272zM384 32C384 40.836556 391.163444 48 400 48C408.836556 48 416 40.836556 416 32C416 23.163444 408.836556 16 400 16C391.163444 16 384 23.163444 384 32ZM384 128C384 136.836556 391.163444 144 400 144C408.836556 144 416 136.836556 416 128C416 119.163444 408.836556 112 400 112C391.163444 112 384 119.163444 384 128ZM384 224C384 232.836556 391.163444 240 400 240C408.836556 240 416 232.836556 416 224C416 215.163444 408.836556 208 400 208C391.163444 208 384 215.163444 384 224Z"/><glyph unicode="" glyph-name="diamons" horiz-adv-x="512" d="M502.624 293.168l-81.28 81.296C415.344 380.464 407.184 383.84 398.72 383.84H113.296c-8.48 0 -16.624 -3.376 -22.624 -9.376 l-81.28 -81.296C3.104 286.896 -0.032 278.624 0 270.336c0.048 -7.52 2.736 -15.024 8.096 -21.056l223.984 -238.528C238.16 3.904 246.864 0 256 0 c9.12 0 17.84 3.904 23.904 10.752l224 238.528c5.472 6.16 8.16 13.872 8.096 21.568C511.936 278.944 508.784 287.008 502.624 293.168zM387.504 351.84l-30.656 -25.552L331.312 351.84H387.504zM388.688 271.84h-72.224l39.408 32.816L388.688 271.84zM344.512 316L304 282.256 L268.512 311.84l43.696 36.448L344.512 316zM291.504 271.84H220.48L256 301.424L291.504 271.84zM291.488 351.84L256 322.24l-35.52 29.6H291.488zM243.504 311.84L208 282.256L167.488 316l32.288 32.288L243.504 311.84zM195.52 271.84H123.312l32.816 32.816L195.52 271.84zM180.688 351.84 L155.136 326.288L124.48 351.84H180.688zM106.976 345.6l36.816 -30.672L100.688 271.84H32.096L106.976 345.6zM45.824 255.84h56.864l100.576 -167.664L45.824 255.84zM121.328 255.84h78.512l39.248 -196.32L121.328 255.84zM216.16 255.84h79.68L256 56.592L216.16 255.84zM272.912 59.536l39.248 196.32h78.496 L272.912 59.536zM308.72 88.16l100.592 167.68h56.88L308.72 88.16zM411.312 271.84l-43.088 43.088l36.752 30.64l73.712 -73.728H411.312z"/><glyph unicode="" glyph-name="display14" horiz-adv-x="512" d="M464 432H48C21.488 432 0 410.528 0 384v-320c0 -26.464 21.408 -47.904 47.84 -47.968H208v-19.472l-99.872 -12.976 C100.992 -18.192 96 -24.592 96 -31.936c0 -8.848 7.152 -16 16 -16h288c8.848 0 16 7.152 16 16c0 7.344 -4.992 13.744 -12.128 15.536L304 -3.44v19.472 h160.16C490.592 16.096 512 37.536 512 64V384C512 410.528 490.496 432 464 432zM480 64c0 -8.816 -7.184 -16 -16 -16H48c-8.832 0 -16 7.184 -16 16V384 c0 8.832 7.168 16 16 16h416c8.816 0 16 -7.168 16 -16V64zM432 368.064L80 368C71.152 368 64 360.912 64 352.064v-224c0 -8.848 7.152 -16 16 -16h352 c8.848 0 16 7.152 16 16v224C448 360.912 440.848 368.064 432 368.064zM432 128H80V352.064h352V128z"/><glyph unicode="" glyph-name="fire" horiz-adv-x="512" d="M352 304c-0.992 -42.8 -33.12 -78.944 -33.12 -78.944C318.88 304.672 256 368 256 368s-0.848 -47.392 -32.688 -95.168 C191.472 384.304 95.92 448 95.92 448C143.696 272.832 80 209.12 80 81.728C80 6.992 143.264 -64 240 -64c143.312 0 171.024 52.608 185.84 111.888 C446.256 129.504 415.68 224.384 352 304zM394.816 55.664C384.528 14.56 372.912 -32 240 -32c-80.128 0 -128 57.824 -128 113.728 c0 42.816 7.808 77.968 16.064 115.184c10.496 47.184 21.248 95.488 16.592 159.376c49.344 -68.304 66.912 -158.8 66.912 -158.8 s45.936 64.496 58.288 94.448C279.312 272.688 288 208 288 144c0 0 42.496 35.008 74.368 87.648C395.936 171.456 408.032 108.528 394.816 55.664zM358.912 179.28l-13.6 -15.76c-16.848 -19.648 -32.784 -38.272 -75.328 -59.68c-6.096 18.272 -11.632 38.384 -11.632 69.168 v27.344l-24.288 -38.048c-8.192 -12.976 -14.976 -23.728 -25.088 -38.016c-15.344 34.592 -26.192 60.176 -34.432 83.392l-7.664 21.6l-8.32 -24.16 c-10.56 -30.736 -20.56 -59.76 -20.56 -135.104c0 -4.416 3.568 -8 8 -8c4.4 0 8 3.584 8 8c0 57.744 5.744 86.336 13.44 111.056 c8.32 -21.152 18.816 -45.2 32.592 -76l5.632 -12.544l8.128 11.072c13.28 18.08 21.184 30.24 29.84 43.888c2.528 -23.664 8.368 -40.64 14.16 -57.44 l2.912 -8.448l8.096 3.824c43.248 20.544 63.488 39.248 79.552 57.2c2.496 -29.824 -1.44 -62.464 -10.784 -85.648 c-1.664 -4.096 0.336 -8.752 4.432 -10.4c0.976 -0.384 2 -0.576 3.008 -0.576c3.152 0 6.16 1.888 7.408 5.008 c12.4 30.784 16.128 74.624 9.472 111.712L358.912 179.28z"/><glyph unicode="" glyph-name="heart3" horiz-adv-x="512" d="M467.088 363.76c-58.064 57.536 -150.912 58.736 -211.056 4.608 C195.872 422.496 103.056 421.296 44.96 363.76c-59.856 -59.264 -59.856 -155.344 0 -214.64c17.104 -16.944 176.848 -175.056 176.848 -175.056 c18.928 -18.752 49.536 -18.752 68.448 0c0 0 174.912 173.152 176.848 175.056C526.976 208.416 526.976 304.496 467.088 363.76zM444.288 171.712 L267.44 -3.344c-6.288 -6.256 -16.544 -6.256 -22.8 0L67.792 171.712c-47.2 46.72 -47.2 122.736 0 169.456 c45.504 45.04 118.656 46.624 166.544 3.552l21.696 -19.52l21.68 19.52c47.904 43.072 121.056 41.504 166.56 -3.552 C491.472 294.464 491.472 218.448 444.288 171.712zM148.048 327.984c-0.032 0 -0.032 -0.016 -0.064 -0.016 c-37.52 -0.032 -67.936 -30.448 -67.936 -67.984l0 0c0 -4.416 3.584 -8 8 -8s8 3.584 8 8V260c0 28.704 23.28 51.984 51.984 51.984 h0.016c4.416 0 8 3.584 8 8S152.48 327.984 148.048 327.984z"/><glyph unicode="" glyph-name="lab" horiz-adv-x="512" d="M330.912 388.288C323.344 395.84 313.312 400 302.624 400s-20.72 -4.16 -28.32 -11.728l-22.56 -22.592 C244.176 358.128 240 348.08 240 337.376c0 -7.536 2.064 -14.752 5.936 -21.008L28.704 229.344c-14.528 -6.384 -24.944 -19.488 -27.872 -35.024 c-2.96 -15.632 2 -31.664 13.344 -42.992l203.52 -201.28c8.768 -8.768 20.416 -13.744 32.72 -14.032C250.704 -64 251.376 -64 251.664 -64 c3.232 0 6.512 0.336 9.76 0.992c15.904 3.296 28.928 14.288 34.832 29.248l85.472 214.016c6.432 -4.24 14 -6.512 21.872 -6.512 c10.72 0 20.752 4.176 28.288 11.728L454.4 208c7.632 7.584 11.808 17.648 11.808 28.368s-4.192 20.8 -11.712 28.288L330.912 388.288zM266.544 -21.872c-1.984 -5.008 -6.352 -8.704 -11.632 -9.792c-1.216 -0.256 -2.448 -0.352 -3.664 -0.336c-4.064 0.096 -7.984 1.728 -10.912 4.672 L36.688 174.08c-3.744 3.728 -5.392 9.072 -4.4 14.288c0.976 5.184 4.464 9.568 9.312 11.68l99.472 39.84 c67.024 -22.288 134.064 -0.816 201.12 -72.352L266.544 -21.872zM431.872 230.72l-22.624 -22.608c-3.12 -3.136 -8.192 -3.136 -11.312 0l-28.288 28.272 l-22.912 -57.424l1.904 4.848c-48.16 48.08 -97.104 54.144 -141.264 59.568c-14.192 1.744 -27.952 3.568 -41.472 6.48l135.856 54.416l-27.44 27.44 c-3.12 3.12 -3.12 8.192 0 11.312l22.624 22.64c3.12 3.12 8.192 3.12 11.312 0l123.6 -123.632 C435.024 238.912 435.024 233.84 431.872 230.72zM264 112c22.048 0 40 17.936 40 40S286.064 192 264 192c-22.064 0 -40 -17.936 -40 -40S241.952 112 264 112zM264 176c13.248 0 24 -10.752 24 -24S277.248 128 264 128c-13.264 0 -24 10.752 -24 24S250.736 176 264 176zM472 448C449.936 448 432 430.064 432 408S449.936 368 472 368S512 385.936 512 408S494.064 448 472 448zM472 384 C458.752 384 448 394.752 448 408S458.752 432 472 432S496 421.248 496 408S485.248 384 472 384zM128 176c0 -17.648 14.352 -32 32 -32s32 14.352 32 32s-14.352 32 -32 32S128 193.648 128 176zM160 192c8.832 0 16 -7.152 16 -16 s-7.168 -16 -16 -16s-16 7.152 -16 16S151.168 192 160 192zM192 80C192 88.836556 199.163444 96 208 96C216.836556 96 224 88.836556 224 80C224 71.163444 216.836556 64 208 64C199.163444 64 192 71.163444 192 80ZM448 320C448 328.836556 455.163444 336 464 336C472.836556 336 480 328.836556 480 320C480 311.163444 472.836556 304 464 304C455.163444 304 448 311.163444 448 320Z"/><glyph unicode="" glyph-name="leaf5" horiz-adv-x="512" d="M502.624 326.64l-96 96C400.624 428.64 392.464 432 384 432H48 C21.536 432 0 410.48 0 384v-384c0 -26.464 21.536 -48 48 -48h416c26.464 0 48 21.536 48 48V304C512 312.496 508.624 320.64 502.624 326.64zM480 0 c0 -8.848 -7.152 -16 -16 -16H48c-8.848 0 -16 7.152 -16 16V384c0 8.848 7.152 16 16 16h320v-64h-0.032c0 -26.512 21.504 -48 48 -48h16H480V0zM431.968 304h-16 c-17.632 0 -32 14.352 -32 32H384V400l96 -96H431.968zM248 320h80C332.4 320 336 323.584 336 328S332.4 336 328 336h-80 C243.584 336 240 332.432 240 328S243.584 320 248 320zM248 272h80c4.4 0 8 3.584 8 8S332.4 288 328 288h-80 c-4.416 0 -8 -3.584 -8 -8S243.584 272 248 272zM240 232c0 -4.416 3.584 -8 8 -8h192c4.4 0 8 3.584 8 8 S444.4 240 440 240h-192C243.584 240 240 236.432 240 232zM440 144h-368C67.584 144 64 140.432 64 136C64 131.6 67.584 128 72 128 h368c4.4 0 8 3.6 8 8C448 140.432 444.4 144 440 144zM440 96h-368C67.584 96 64 92.432 64 88C64 83.6 67.584 80 72 80 h368c4.4 0 8 3.6 8 8C448 92.432 444.4 96 440 96zM440 48h-368C67.584 48 64 44.432 64 40C64 35.6 67.584 32 72 32 h368c4.4 0 8 3.6 8 8C448 44.432 444.4 48 440 48zM440 192h-368C67.584 192 64 188.432 64 184S67.584 176 72 176h368 c4.4 0 8 3.584 8 8S444.4 192 440 192zM80 224h112c8.848 0 16 7.152 16 16V336c0 8.848 -7.152 16 -16 16H80 C71.152 352 64 344.848 64 336v-96C64 231.168 71.152 224 80 224zM96 320h80v-64H96V320z"/><glyph unicode="" glyph-name="like" horiz-adv-x="512" d="M466.624 280.448c-20 5.248 -67.024 5.184 -135.808 7.008 c3.248 15.008 4 28.544 4 52.576C334.816 397.44 292.992 448 256 448c-26.128 0 -47.664 -21.36 -48 -47.632c-0.352 -32.224 -10.32 -87.872 -64 -116.096 c-3.936 -2.08 -15.2 -7.632 -16.848 -8.352L128 275.2C119.6 282.448 107.952 288 96 288H48c-26.464 0 -48 -21.536 -48 -48v-256c0 -26.464 21.536 -48 48 -48h48 c19.04 0 34.976 11.504 42.688 27.632c0.192 -0.064 0.528 -0.16 0.752 -0.192c1.056 -0.288 2.304 -0.592 3.824 -0.992 C143.552 -37.632 143.696 -37.664 144 -37.744c9.216 -2.288 26.96 -6.528 64.88 -15.248C217.008 -54.848 259.952 -64 304.432 -64h87.472 c26.656 0 45.872 10.256 57.312 30.848c0.16 0.32 3.84 7.504 6.848 17.216c2.256 7.312 3.088 17.664 0.368 28.16 c17.184 11.808 22.72 29.664 26.32 41.28c6.032 19.056 4.224 33.376 0.032 43.632c9.664 9.12 17.904 23.024 21.376 44.256 c2.16 13.152 -0.16 26.688 -6.224 37.952c9.056 10.176 13.184 22.976 13.664 34.816l0.192 3.344C511.904 219.6 512 220.896 512 225.504 C512 245.712 498 271.488 466.624 280.448zM112 -16c0 -8.848 -7.152 -16 -16 -16H48c-8.848 0 -16 7.152 -16 16V240c0 8.848 7.152 16 16 16h48 c8.848 0 16 -7.152 16 -16V-16zM479.632 215.44C479.312 207.536 476 192 448 192c-24 0 -32 0 -32 0c-4.432 0 -8 -3.584 -8 -8S411.568 176 416 176 c0 0 7.008 0 31.008 0s27.152 -19.904 25.6 -29.504C470.624 134.56 465.024 112 438 112C411.008 112 400 112 400 112c-4.432 0 -8 -3.568 -8 -8 c0 -4.4 3.568 -8 8 -8c0 0 19.008 0 31.504 0c27.008 0 24.624 -20.592 20.752 -32.88C447.152 46.976 444.032 32 410 32 c-11.504 0 -26.096 0 -26.096 0c-4.432 0 -8 -3.568 -8 -8c0 -4.4 3.568 -8 8 -8c0 0 11.088 0 25.088 0 c17.504 0 18.32 -16.56 16.496 -22.496c-2 -6.496 -4.368 -11.312 -4.464 -11.536C416.192 -26.752 408.4 -32 391.904 -32h-87.472 c-43.936 0 -87.52 9.968 -88.64 10.224c-66.464 15.312 -69.968 16.496 -74.144 17.68c0 0 -13.536 2.288 -13.536 14.096L128 230.992 c0 7.504 4.784 14.288 12.704 16.672c0.992 0.384 2.336 0.8 3.296 1.2c73.088 30.272 95.344 96.64 96 151.136c0.096 7.664 6 16 16 16 c16.912 0 46.816 -33.952 46.816 -75.968C302.816 302.096 301.28 295.536 288 256c160 0 158.88 -2.304 172.992 -6C478.496 244.992 480 230.496 480 225.504 C480 220.016 479.84 220.816 479.632 215.44zM72 32C58.752 32 48 21.248 48 8S58.752 -16 72 -16 S96 -5.248 96 8S85.248 32 72 32zM72 0C67.6 0 64 3.6 64 8S67.6 16 72 16S80 12.4 80 8S76.4 0 72 0z"/><glyph unicode="" glyph-name="location4" horiz-adv-x="512" d="M256.032 164.064c52.944 0 96 43.072 96 96s-43.056 96 -96 96 c-52.944 0 -96 -43.056 -96 -96S203.088 164.064 256.032 164.064zM256.032 340.064c44.128 0 80 -35.872 80 -80s-35.872 -80 -80 -80c-44.128 0 -80 35.872 -80 80 S211.904 340.064 256.032 340.064zM256 448C150.112 448 64 362.944 64 255.984c0 -112 96.016 -226.576 166.016 -307.104 C230.272 -51.44 241.504 -64 255.392 -64c0.032 0 1.168 0 1.232 0c13.872 0 25.12 12.56 25.376 12.88 c70.032 80.528 166.032 195.088 166.032 307.104C448.032 362.944 361.904 448 256 448zM257.872 -30.128c-0.336 -0.32 -1.312 -1.024 -2.16 -1.568 c-0.16 0.432 -1.344 1.376 -2.064 2.128C195.008 37.904 96 151.776 96 255.984C96 344.208 167.792 416 256 416c88.256 0 160.032 -71.792 160.032 -160.032 C416.032 151.776 317.024 37.904 257.872 -30.128z"/><glyph unicode="" glyph-name="news" horiz-adv-x="512" d="M464 448H112C85.488 448 64 426.528 64 400v-32H48C21.488 368 0 346.528 0 320v-320 c0 -35.344 28.656 -64 64 -64h384c35.344 0 64 28.656 64 64V400C512 426.528 490.496 448 464 448zM480 0c0 -17.632 -14.368 -32 -32 -32H64c-17.648 0 -32 14.368 -32 32V320 c0 8.832 7.168 16 16 16h16v-320c0 -8.848 7.152 -16 16 -16s16 7.152 16 16V400c0 8.832 7.168 16 16 16h352c8.816 0 16 -7.168 16 -16V0zM311.968 239.92h128c4.432 0 8 3.584 8 8s-3.568 8 -8 8 h-128c-4.4 0 -8 -3.584 -8 -8S307.568 239.92 311.968 239.92zM311.968 287.92h128c4.432 0 8 3.584 8 8s-3.568 8 -8 8 h-128c-4.4 0 -8 -3.584 -8 -8S307.568 287.92 311.968 287.92zM311.968 335.92h128c4.432 0 8 3.584 8 8s-3.568 8 -8 8h-128 c-4.4 0 -8 -3.584 -8 -8S307.568 335.92 311.968 335.92zM264 15.936h-128c-4.416 0 -8 -3.6 -8 -8 c0 -4.432 3.584 -8 8 -8h128c4.4 0 8 3.568 8 8C272 12.336 268.416 15.936 264 15.936zM264 63.936h-128c-4.416 0 -8 -3.6 -8 -8 c0 -4.432 3.584 -8 8 -8h128c4.4 0 8 3.568 8 8C272 60.336 268.416 63.936 264 63.936zM264 111.936h-128c-4.416 0 -8 -3.6 -8 -8 c0 -4.432 3.584 -8 8 -8h128c4.4 0 8 3.568 8 8C272 108.336 268.416 111.936 264 111.936zM440 15.936h-128c-4.432 0 -8 -3.6 -8 -8 c0 -4.432 3.568 -8 8 -8h128c4.4 0 8 3.568 8 8C448 12.336 444.4 15.936 440 15.936zM440 63.936h-128c-4.432 0 -8 -3.6 -8 -8 c0 -4.432 3.568 -8 8 -8h128c4.4 0 8 3.568 8 8C448 60.336 444.4 63.936 440 63.936zM440 111.936h-128c-4.432 0 -8 -3.6 -8 -8 c0 -4.432 3.568 -8 8 -8h128c4.4 0 8 3.568 8 8C448 108.336 444.4 111.936 440 111.936zM440 207.936h-304c-4.416 0 -8 -3.584 -8 -8s3.584 -8 8 -8 h304c4.4 0 8 3.584 8 8S444.4 207.936 440 207.936zM440 159.936h-304c-4.416 0 -8 -3.6 -8 -8 c0 -4.432 3.584 -8 8 -8h304c4.4 0 8 3.568 8 8C448 156.336 444.4 159.936 440 159.936zM144 240h112c8.848 0 16 7.152 16 16V367.936c0 8.848 -7.152 16 -16 16H144 c-8.848 0 -16 -7.152 -16 -16V256C128 247.168 135.152 240 144 240zM160 352h80v-80h-80V352z"/><glyph unicode="" glyph-name="noodle" horiz-adv-x="512" d="M472 112h-43.056c-0.72 3.824 -1.6 7.568 -2.56 11.296l76.784 38.384c7.904 3.952 11.088 13.568 7.152 21.472 c-3.968 7.904 -13.536 11.072 -21.472 7.152l-73.248 -36.608C387.664 213.984 326.72 256 256 256c-86.112 0 -157.84 -62.208 -172.944 -144H40 C17.952 112 0 94.064 0 72c0 -7.84 2.88 -15.408 8.08 -21.264L64 -12.176V-24C64 -46.064 81.952 -64 104 -64h304c22.064 0 40 17.936 40 40 v11.824l55.904 62.912C509.12 56.592 512 64.16 512 72C512 94.064 494.064 112 472 112zM412.784 112h-8.992l7.968 4 C412.064 114.656 412.496 113.36 412.784 112zM256 240c64.464 0 120 -38.4 145.312 -93.456l-14.256 -7.12C364.4 189.264 314.32 224 256 224 c-68.512 0 -125.744 -47.888 -140.32 -112H99.232C114.096 184.944 178.736 240 256 240zM329.216 112c-12.368 28.208 -40.496 48 -73.216 48s-60.832 -19.792 -73.216 -48 H165.6c13.216 37.216 48.688 64 90.4 64c39.44 0 73.408 -23.936 88.128 -58.032L332.224 112H329.216zM256 128c-14.128 0 -26.72 -6.256 -35.52 -16h-19.584 c11.104 19.024 31.52 32 55.104 32c23.568 0 44 -12.976 55.088 -32h-19.6C282.72 121.744 270.128 128 256 128zM256 192 c-50.64 0 -93.472 -33.792 -107.28 -80H132.208c14.272 55.104 64.272 96 123.792 96c51.936 0 96.688 -31.168 116.72 -75.744l-14.288 -7.136 C341.024 164.432 301.68 192 256 192zM416 0v-24c0 -4.416 -3.6 -8 -8 -8h-304C99.584 -32 96 -28.416 96 -24V0l-64 72 C32 76.416 35.584 80 40 80H80h16h16h16h16h16h16h16h16h96h16h16h16h16h16h16h16h16h40c4.4 0 8 -3.584 8 -8L416 0zM127.632 260.608c0.048 -0.096 0.08 -0.192 0.128 -0.288c0 0 0.016 0 0.032 0C129.12 257.76 131.776 256 134.88 256 c4.432 0 8.032 3.616 8.032 8.048c0 0.688 -0.112 1.36 -0.288 2c0.032 0.112 0.032 0.208 0 0.32 c-6 14.112 -0.304 29.6 6.704 46.272c7.568 18.016 15.68 38.016 6.752 58.352C154.944 373.92 152.112 376 148.784 376 c-4.336 0 -7.84 -3.52 -7.84 -7.84c0 -0.96 0.192 -1.856 0.512 -2.704c0 -0.032 0 -0.064 0.016 -0.096c0.016 -0.048 0.032 -0.096 0.048 -0.144 C141.552 365.152 141.568 365.088 141.6 365.024c6.464 -14.544 0.208 -29.456 -6.848 -46.288C127.296 300.992 119.04 281.328 127.344 261.28 C127.44 261.04 127.52 260.832 127.632 260.608zM322.464 262.944c0.064 -0.096 0.096 -0.192 0.128 -0.288h0.032c1.344 -2.56 4 -4.336 7.088 -4.336 c4.432 0 8.064 3.616 8.064 8.048c0 0.688 -0.128 1.36 -0.288 2c0.032 0.112 0.032 0.208 -0.032 0.32 c-5.968 14.112 -0.288 29.6 6.72 46.272c7.568 18.016 15.68 38.016 6.752 58.352c-1.152 2.944 -3.968 5.008 -7.312 5.008 c-4.32 0 -7.84 -3.52 -7.84 -7.84c0 -0.96 0.224 -1.856 0.528 -2.704c0 -0.032 0 -0.064 0 -0.096c0.032 -0.048 0.032 -0.096 0.064 -0.144 c0.032 -0.064 0.064 -0.128 0.064 -0.192c6.464 -14.544 0.224 -29.456 -6.848 -46.288c-7.44 -17.744 -15.68 -37.424 -7.376 -57.472 C322.288 263.376 322.368 263.152 322.464 262.944zM240.304 332.608c0.048 -0.096 0.08 -0.192 0.128 -0.288c0 0 0.016 0 0.032 0c1.344 -2.56 4 -4.336 7.088 -4.336 c4.432 0 8.032 3.616 8.032 8.048c0 0.688 -0.112 1.36 -0.288 2c0.032 0.112 0.032 0.208 0 0.32 c-6 14.112 -0.304 29.6 6.704 46.272c7.568 18.016 15.68 38.016 6.752 58.352C267.6 445.92 264.784 448 261.44 448 c-4.32 0 -7.84 -3.52 -7.84 -7.84c0 -0.96 0.192 -1.856 0.512 -2.704c0 -0.032 0 -0.064 0.016 -0.096c0.016 -0.048 0.032 -0.096 0.048 -0.144 c0.016 -0.064 0.048 -0.128 0.064 -0.192c6.464 -14.544 0.208 -29.456 -6.848 -46.288c-7.456 -17.744 -15.712 -37.424 -7.392 -57.472 C240.112 333.04 240.192 332.832 240.304 332.608z"/><glyph unicode="" glyph-name="note2" horiz-adv-x="512" d="M500.576 440.496C494.768 445.376 487.488 448 480.016 448l-5.584 -0.496l-272.016 -48C187.12 396.816 175.984 383.536 175.984 368 v-274.72C159.744 105.056 138.672 112 115.28 112c-13.6 0 -27.2 -2.256 -40.464 -6.656C44.448 95.216 20.096 74.912 8 49.6 c-9.344 -19.568 -10.544 -40.848 -3.424 -59.936C16.752 -42.944 51.344 -64 92.704 -64c13.6 0 27.2 2.224 40.448 6.656 c30.352 10.096 54.704 30.4 66.8 55.68c5.2 10.912 7.632 22.336 7.728 33.664h0.288V288l5.568 0.464l266.48 47.024V141.28 C463.744 153.056 442.704 160 419.296 160c-13.616 0 -27.216 -2.256 -40.464 -6.656c-30.352 -10.128 -54.72 -30.432 -66.784 -55.744 c-9.344 -19.568 -10.56 -40.848 -3.44 -59.936C320.8 5.056 355.36 -16 396.736 -16c13.616 0 27.216 2.224 40.464 6.656 c30.336 10.096 54.688 30.4 66.784 55.68c5.216 10.912 7.648 22.336 7.728 33.664h0.304V416C512.016 425.44 507.808 434.432 500.576 440.496zM123.008 -27.008c-38.336 -12.784 -77.968 -0.304 -88.464 27.824c-10.528 28.176 12.016 61.344 50.336 74.144c38.336 12.784 77.968 0.32 88.464 -27.84 C183.888 18.976 161.344 -14.224 123.008 -27.008zM479.36 368L207.328 320V368L479.36 416V368zM426.432 20.992c-38.352 -12.784 -78 -0.304 -88.48 27.824 c-10.528 28.176 12.032 61.344 50.336 74.144c38.368 12.784 78 0.32 88.496 -27.84C487.328 66.976 464.8 33.776 426.432 20.992z"/><glyph unicode="" glyph-name="packet" horiz-adv-x="512" d="M448 368H64C28.656 368 0 339.328 0 304v-208c0 -35.344 28.656 -64 64 -64h384c35.344 0 64 28.656 64 64V304 C512 339.328 483.344 368 448 368zM32 284l111.984 -84L32 116V284zM480 96c0 -17.664 -14.368 -32 -32 -32H64c-17.648 0 -32 14.336 -32 32l125.312 94 l69.888 -52.432c8.528 -6.368 18.656 -9.6 28.8 -9.6c10.128 0 20.256 3.216 28.784 9.6l69.904 52.432L480 96L480 96zM480 116l-112 84l112 84 V116zM275.184 150.368c-5.584 -4.192 -12.208 -6.4 -19.184 -6.4c-6.976 0 -13.616 2.224 -19.2 6.4L170.64 200l-13.328 10L32 303.984V304 c0 17.648 14.352 32 32 32h384c17.632 0 32 -14.352 32 -32L275.184 150.368z"/><glyph unicode="" glyph-name="paperclip2" horiz-adv-x="512" d="M469.808 373.808c-56.224 56.256 -147.408 56.256 -203.632 0L32.736 143.136c-43.664 -43.664 -43.664 -114.736 0 -158.4 c43.664 -43.664 114.72 -43.664 158.368 0l233.44 230.688c31.248 31.248 31.248 81.888 0 113.136c-31.248 31.232 -81.904 31.232 -113.12 0L135.936 153.072 c-6.256 -6.272 -6.256 -16.368 0 -22.64c6.256 -6.256 16.368 -6.256 22.624 0L334.064 305.936c18.72 18.704 49.152 18.704 67.872 0 c18.72 -18.72 18.72 -49.168 0 -67.888l-233.44 -230.672c-31.248 -31.248 -81.872 -31.248 -113.12 0c-31.248 31.232 -31.248 81.888 0 113.12L286.528 348.928 c43.744 43.744 114.688 43.744 158.368 0c43.776 -43.76 43.776 -114.64 0.032 -158.384L271.712 17.312c-6.288 -6.272 -6.288 -16.368 0 -22.624 c6.256 -6.272 16.368 -6.272 22.624 0l175.472 175.488C526.064 226.4 526.064 317.584 469.808 373.808z"/><glyph unicode="" glyph-name="paperplane" horiz-adv-x="512" d="M504.688 445.44C502.032 447.152 499.008 448 496 448c-3.088 0 -6.192 -0.88 -8.88 -2.688l-480 -320 c-4.944 -3.28 -7.664 -9.056 -7.024 -14.976c0.608 -5.904 4.448 -11.008 9.968 -13.184l125.184 -50.096l58.864 -103.008 c2.816 -4.944 8.048 -8 13.712 -8.064c0.064 0 0.112 0 0.176 0c5.616 0 10.832 2.976 13.712 7.776l33.232 55.408l155.12 -62.032 C411.968 -63.632 413.968 -64 416 -64c2.72 0 5.408 0.688 7.84 2.064c4.224 2.368 7.12 6.528 7.936 11.312l80 480 C512.816 435.664 510.032 441.968 504.688 445.44zM50.176 115.568L420.976 362.784L151.376 74.192c-1.424 0.848 -2.688 1.968 -4.256 2.592 L50.176 115.568zM163.024 62.944c-0.032 0.064 -0.08 0.096 -0.112 0.16L466 387.504L207.616 -15.088L163.024 62.944zM403.472 -25.744 l-136.656 54.656c-3.248 1.28 -6.624 1.712 -9.968 1.904L467.28 357.024L403.472 -25.744z"/><glyph unicode="" glyph-name="parameters" horiz-adv-x="512" d="M128 351.664V400c0 26.464 -21.536 48 -48 48S32 426.464 32 400v-48.336 C12.672 337.024 0 314.096 0 288s12.672 -49.024 32 -63.632V-16c0 -26.464 21.536 -48 48 -48s48 21.536 48 48V224.368c19.328 14.592 32 37.536 32 63.632 S147.328 337.024 128 351.664zM64 400c0 8.848 7.152 16 16 16s16 -7.152 16 -16v-33.6C90.832 367.44 85.488 368 80 368S69.168 367.44 64 366.4V400zM96 -16 c0 -8.848 -7.152 -16 -16 -16s-16 7.152 -16 16V209.632C69.168 208.56 74.512 208 80 208s10.832 0.56 16 1.632V-16zM125.84 274.56 c-0.256 -0.848 -0.48 -1.68 -0.784 -2.528c-1.52 -4.224 -3.472 -8.224 -6.048 -11.776c-0.064 -0.096 -0.16 -0.16 -0.224 -0.256 c-2.784 -3.808 -6.096 -7.184 -9.856 -10.032c-0.064 -0.064 -0.112 -0.096 -0.16 -0.128c-3.856 -2.912 -8.16 -5.248 -12.784 -6.88 C90.976 241.152 85.648 240 80 240s-10.976 1.152 -16 2.976c-4.624 1.632 -8.928 3.968 -12.784 6.88c-0.048 0.032 -0.096 0.064 -0.16 0.128 c-3.76 2.848 -7.072 6.224 -9.856 10.032c-0.064 0.096 -0.16 0.16 -0.224 0.256c-2.576 3.568 -4.528 7.568 -6.048 11.776 c-0.304 0.848 -0.528 1.68 -0.784 2.528C32.88 278.848 32 283.312 32 288c0 4.72 0.88 9.184 2.16 13.472 c0.256 0.848 0.48 1.68 0.784 2.496C36.448 308.192 38.4 312.192 40.992 315.776c0.064 0.096 0.16 0.16 0.224 0.256 c2.784 3.776 6.096 7.184 9.856 10.032c0.064 0.032 0.112 0.096 0.16 0.128C55.072 329.056 59.376 331.408 64 333.056 C69.024 334.848 74.352 336 80 336s10.976 -1.152 16 -2.944c4.624 -1.664 8.928 -4 12.784 -6.88c0.048 -0.032 0.096 -0.096 0.16 -0.128 c3.76 -2.848 7.072 -6.256 9.856 -10.032c0.064 -0.096 0.16 -0.16 0.224 -0.256C121.6 312.192 123.552 308.192 125.056 303.968 C125.36 303.152 125.6 302.32 125.84 301.472C127.12 297.184 128 292.72 128 288C128 283.312 127.12 278.848 125.84 274.56zM480 351.664V400c0 26.464 -21.536 48 -48 48s-48 -21.536 -48 -48v-48.336 C364.656 337.024 352 314.096 352 288s12.656 -49.024 32 -63.632V-16c0 -26.464 21.536 -48 48 -48s48 21.536 48 48V224.368c19.312 14.592 32 37.536 32 63.632 S499.312 337.024 480 351.664zM416 400c0 8.848 7.152 16 16 16s16 -7.152 16 -16v-33.6C442.816 367.44 437.472 368 432 368c-5.504 0 -10.848 -0.56 -16 -1.6V400zM448 -16c0 -8.848 -7.152 -16 -16 -16s-16 7.152 -16 16V209.632C421.152 208.56 426.496 208 432 208c5.472 0 10.816 0.56 16 1.632V-16zM477.84 274.56 c-0.256 -0.848 -0.496 -1.68 -0.784 -2.528c-1.536 -4.224 -3.472 -8.224 -6.064 -11.776c-0.064 -0.096 -0.16 -0.16 -0.224 -0.256 c-2.784 -3.808 -6.096 -7.184 -9.84 -10.032c-0.064 -0.064 -0.128 -0.096 -0.16 -0.128c-3.872 -2.912 -8.16 -5.248 -12.784 -6.88 C442.976 241.152 437.632 240 432 240c-5.664 0 -10.976 1.152 -16 2.976c-4.624 1.632 -8.944 3.968 -12.784 6.88 c-0.064 0.032 -0.096 0.064 -0.16 0.128c-3.776 2.848 -7.088 6.224 -9.872 10.032c-0.064 0.096 -0.16 0.16 -0.224 0.256 c-2.56 3.568 -4.528 7.568 -6.032 11.776c-0.32 0.848 -0.528 1.68 -0.784 2.528C384.88 278.848 384 283.312 384 288 c0 4.72 0.88 9.184 2.16 13.472c0.256 0.848 0.464 1.68 0.784 2.496c1.504 4.224 3.472 8.224 6.032 11.808 c0.064 0.096 0.16 0.16 0.224 0.256c2.784 3.776 6.096 7.184 9.872 10.032c0.064 0.032 0.096 0.096 0.16 0.128 c3.84 2.88 8.16 5.216 12.784 6.88C421.024 334.848 426.336 336 432 336c5.632 0 10.976 -1.152 16 -2.944c4.624 -1.664 8.912 -4 12.784 -6.88 c0.032 -0.032 0.096 -0.096 0.16 -0.128c3.744 -2.848 7.056 -6.256 9.84 -10.032c0.064 -0.096 0.16 -0.16 0.224 -0.256 c2.592 -3.6 4.528 -7.6 6.064 -11.808c0.288 -0.816 0.528 -1.664 0.784 -2.496C479.12 297.184 480 292.72 480 288 C480 283.312 479.12 278.848 477.84 274.56zM304 159.664V400c0 26.464 -21.536 48 -48 48s-48 -21.536 -48 -48v-240.336 c-19.328 -14.624 -32 -37.568 -32 -63.664s12.672 -49.024 32 -63.632V-16c0 -26.464 21.536 -48 48 -48s48 21.536 48 48v48.368c19.312 14.592 32 37.536 32 63.632 S323.312 145.024 304 159.664zM240 400c0 8.848 7.152 16 16 16c8.848 0 16 -7.152 16 -16v-225.6c-5.184 1.024 -10.528 1.6 -16 1.6 c-5.488 0 -10.832 -0.56 -16 -1.6V400zM272 -16c0 -8.848 -7.152 -16 -16 -16c-8.848 0 -16 7.152 -16 16v33.632C245.168 16.56 250.512 16 256 16 c5.472 0 10.816 0.56 16 1.632V-16zM301.84 82.56c-0.256 -0.848 -0.496 -1.68 -0.784 -2.528c-1.536 -4.224 -3.472 -8.224 -6.064 -11.776 c-0.064 -0.096 -0.16 -0.16 -0.224 -0.256c-2.784 -3.808 -6.096 -7.184 -9.84 -10.032c-0.064 -0.064 -0.128 -0.096 -0.16 -0.128 c-3.872 -2.912 -8.16 -5.248 -12.784 -6.88C266.976 49.152 261.632 48 256 48c-5.648 0 -10.976 1.152 -16 2.976 c-4.624 1.632 -8.928 3.968 -12.784 6.88c-0.048 0.032 -0.096 0.064 -0.16 0.128c-3.76 2.848 -7.072 6.224 -9.856 10.032 c-0.064 0.096 -0.16 0.16 -0.224 0.256c-2.576 3.568 -4.528 7.568 -6.048 11.776c-0.304 0.848 -0.528 1.68 -0.784 2.528 C208.88 86.848 208 91.312 208 96c0 4.72 0.88 9.184 2.16 13.472c0.256 0.848 0.48 1.68 0.784 2.496 c1.52 4.224 3.472 8.224 6.048 11.808c0.064 0.096 0.16 0.16 0.224 0.256c2.784 3.776 6.096 7.184 9.856 10.032 c0.064 0.032 0.112 0.096 0.16 0.128c3.856 2.88 8.16 5.216 12.784 6.88C245.024 142.848 250.352 144 256 144c5.632 0 10.976 -1.152 16 -2.944 c4.624 -1.664 8.912 -4 12.784 -6.88c0.032 -0.032 0.096 -0.096 0.16 -0.128c3.744 -2.848 7.056 -6.256 9.84 -10.032 c0.064 -0.096 0.16 -0.16 0.224 -0.256c2.592 -3.6 4.528 -7.6 6.064 -11.808c0.288 -0.816 0.528 -1.664 0.784 -2.496 C303.12 105.184 304 100.72 304 96C304 91.312 303.12 86.848 301.84 82.56z"/><glyph unicode="" glyph-name="pen3" horiz-adv-x="512" d="M470.32 406.72C444 433.008 409.344 448 375.184 448c-28.816 0 -55.344 -10.688 -74.72 -30.032l-77.872 -78.464 c-0.24 -0.224 -0.512 -0.368 -0.752 -0.608c-0.128 -0.128 -0.208 -0.304 -0.336 -0.416l0.032 -0.032L56.272 171.904 c-7.616 -7.568 -13.136 -16.992 -16.208 -27.28l-37.584 -136.128C2.448 8.128 0 -2.56 0 -8C0 -38.912 25.104 -64 56.064 -64 c6.16 0 18.08 2.944 18.512 3.008l135.648 35.664c10.304 3.056 19.664 8.624 27.28 16.256l244.208 246.128 C526.128 281.504 521.12 356 470.32 406.72zM256.224 67.28c-1.312 14.432 -5.392 28.592 -11.504 42.032l151.28 151.264 c9.248 -29.216 4.496 -59.776 -15.776 -80.064c-0.128 -0.128 -0.288 -0.208 -0.4 -0.336l0.224 -0.208l-123.648 -124.64 C256.4 59.312 256.592 63.216 256.224 67.28zM236.688 123.904c-5.968 9.808 -12.752 19.28 -21.152 27.664 c-9.776 9.776 -20.992 17.44 -32.704 23.872l152.512 152.512c11.968 -5.312 23.44 -12.88 33.568 -23.008c8.656 -8.624 15.344 -18.288 20.496 -28.336 L236.688 123.904zM167.776 183.008c-14.816 5.968 -30.336 9.376 -45.888 9.584l123.248 124.192c18.864 18.4 46.336 23.696 73.392 16.992 L167.776 183.008zM66.672 -29.968C64.928 -30.368 59.504 -31.744 55.824 -32C42.672 -31.84 32 -21.152 32 -8 c0.192 2.688 1.264 7.312 1.632 8.992l16.848 61.024c18.288 0.496 37.968 -6.624 53.44 -22.128c15.712 -15.68 23.104 -35.744 22.304 -54.256 L66.672 -29.968zM141.984 -10.192c-0.384 21.472 -9.12 43.808 -26.752 61.408C98.56 67.904 76.736 77.536 54.976 78.4l15.936 57.712 c1.152 3.84 3.44 7.632 6.256 10.944c32.096 22.976 81.456 16.192 115.744 -18.128c36.272 -36.256 41.872 -89.376 13.936 -121.088 c-1.856 -0.976 -3.728 -1.904 -5.744 -2.496L141.984 -10.192zM459.056 259.648l-26.944 -27.152c0 3.616 0.432 7.088 0.096 10.784 c-2.816 30.96 -17.248 60.896 -40.688 84.304c-26.064 26.08 -60.624 41.04 -94.848 41.136l26.496 26.72C336.432 408.672 354.944 416 375.184 416 c25.744 0 52.192 -11.648 72.528 -31.92c19.088 -19.056 30.464 -42.736 32.096 -66.688C481.312 295.04 473.936 274.544 459.056 259.648z"/><glyph unicode="" glyph-name="phone12" horiz-adv-x="512" d="M240 -7.936c0 4.432 3.584 8 8 8h16c4.4 0 8 -3.568 8 -8c0 -4.4 -3.6 -8 -8 -8h-16 C243.584 -15.936 240 -12.336 240 -7.936zM280 400h-48C227.568 400 224 396.432 224 392C224 387.584 227.568 384 232 384h48C284.4 384 288 387.584 288 392 C288 396.432 284.4 400 280 400zM432 400v-416c0 -26.496 -21.504 -48 -48 -48H128c-26.512 0 -48 21.472 -48 48V400c0 26.512 21.472 48 48 48h256C410.496 448 432 426.528 432 400zM400 16.064H112V-16c0 -8.848 7.168 -16 16 -16h256c8.816 0 16 7.184 16 16V16.064zM400 352H112v-319.936h288V352zM400 400c0 8.832 -7.184 16 -16 16H128 C119.168 416 112 408.832 112 400v-32h288V400z"/><glyph unicode="" glyph-name="photo3" horiz-adv-x="512" d="M432 448H80C44.656 448 16 419.344 16 384v-384c0 -35.344 28.656 -64 64 -64h352c35.344 0 64 28.656 64 64V384C496 419.344 467.344 448 432 448zM464 0c0 -17.632 -14.368 -32 -32 -32H80c-17.648 0 -32 14.368 -32 32V384c0 17.648 14.352 32 32 32h352c17.632 0 32 -14.352 32 -32V0zM416 384H96C87.152 384 80 376.848 80 368v-288c0 -8.848 7.152 -16 16 -16h320c8.848 0 16 7.152 16 16V368C432 376.848 424.848 384 416 384zM416 368v-221.904l-52 56.48C360.944 206.032 356.592 208 352 208s-8.976 -1.968 -12 -5.424l-41.664 -47.2l-126.336 143.2 C168.96 302.032 164.592 304 160 304S151.04 302.032 148 298.576L96 238.608V368H416zM96 214.4l64 73.6l129.056 -146.288l9.28 -10.528L342.528 80H96V214.4zM363.84 80l-54.848 63.28L352 192l64 -70.064V80H363.84zM320 240c26.496 0 48 21.488 48 48s-21.504 48 -48 48c-26.528 0 -48 -21.488 -48 -48S293.472 240 320 240zM320 320c17.632 0 32 -14.352 32 -32 s-14.368 -32 -32 -32c-17.664 0 -32 14.352 -32 32S302.336 320 320 320z"/><glyph unicode="" glyph-name="search3" horiz-adv-x="512" d="M320 447.92c-106.032 0 -192 -85.968 -192 -192c0 -32.416 8.112 -62.928 22.32 -89.728l-133.504 -133.472l0.112 -0.096 C6.496 22.368 0 8.16 0 -7.632c0 -31.184 25.28 -56.464 56.464 -56.464c15.76 0 29.984 6.496 40.24 16.944l-0.032 0.032l133.456 133.44 c26.816 -14.256 57.376 -22.4 89.872 -22.4c106.032 0 192 85.968 192 192C512 361.952 426.032 447.92 320 447.92zM76.72 -27.152 c-5.152 -5.344 -12.288 -8.688 -20.256 -8.688c-15.6 0 -28.24 12.624 -28.24 28.224c0 7.968 3.36 15.088 8.688 20.256l-0.144 0.128l129.056 129.056 c11.28 -15.216 24.72 -28.656 39.904 -39.968L76.72 -27.152zM320 95.904c-88.352 0 -160 71.664 -160 160c0 88.352 71.648 160 160 160 c88.336 0 160 -71.648 160 -160C480 167.568 408.336 95.904 320 95.904zM320 367.92c-61.872 0 -112 -50.144 -112 -112c0 -4.416 3.584 -8 8 -8s8 3.584 8 8c0 53.008 42.976 96 96 96 c4.4 0 8 3.584 8 8S324.4 367.92 320 367.92z"/><glyph unicode="" glyph-name="see" horiz-adv-x="512" d="M511.44 195.584c-0.16 0.672 -0.064 1.392 -0.32 2.048c-0.096 0.272 -0.336 0.416 -0.432 0.672 c-0.16 0.384 -0.128 0.816 -0.336 1.184c-46.4 88.816 -147.408 152.448 -253.968 152.448c-106.576 0 -207.568 -63.536 -254 -152.336 c-0.208 -0.368 -0.176 -0.8 -0.336 -1.184c-0.112 -0.256 -0.336 -0.4 -0.432 -0.672c-0.256 -0.656 -0.16 -1.376 -0.32 -2.048 c-0.288 -1.2 -0.56 -2.352 -0.56 -3.584s0.288 -2.368 0.56 -3.584c0.16 -0.672 0.064 -1.392 0.32 -2.048 c0.096 -0.272 0.336 -0.416 0.432 -0.672c0.16 -0.384 0.128 -0.816 0.336 -1.184c46.416 -88.816 147.424 -152.448 254 -152.448 c106.56 0 207.568 63.536 253.968 152.336c0.224 0.368 0.192 0.8 0.336 1.184c0.096 0.256 0.336 0.4 0.432 0.672 c0.256 0.656 0.16 1.376 0.32 2.048C511.712 189.632 512 190.784 512 192S511.712 194.384 511.44 195.584zM256.368 64.192 c-89.84 0 -177.792 51.056 -221.616 127.92c44.064 76.96 131.888 127.84 221.616 127.84c89.808 0 177.776 -51.072 221.6 -127.92 C433.904 115.056 346.096 64.192 256.368 64.192zM256.368 256.016c-0.032 0 -0.064 -0.016 -0.096 -0.016c-35.28 -0.064 -63.872 -28.656 -63.872 -63.936 c0 -4.416 3.584 -8 8 -8c4.4 0 7.984 3.584 7.984 8c0 26.432 21.52 47.952 47.984 47.952v0.016 c4.4 0 7.968 3.584 7.968 7.984C264.336 252.448 260.784 256.016 256.368 256.016zM256 304c-61.872 0 -112 -50.144 -112 -112c0 -61.856 50.144 -112 112 -112c61.84 0 112 50.16 112 112C368 253.872 317.84 304 256 304zM256 96 c-52.944 0 -96 43.056 -96 96c0 52.944 43.056 96 96 96c52.944 0 96 -43.056 96 -96C352 139.056 308.944 96 256 96z"/><glyph unicode="" glyph-name="settings3" horiz-adv-x="512" d="M486.256 245.12l-49.024 9.824c-2.464 7.088 -5.376 13.968 -8.592 20.624l27.776 41.664 c8.464 12.688 6.784 29.6 -4 40.368l-30.784 30.784c-6.192 6.192 -14.368 9.376 -22.656 9.376c-6.128 0 -12.32 -1.76 -17.712 -5.376 l-41.664 -27.76c-6.688 3.232 -13.568 6.112 -20.656 8.576L309.12 422.24c-2.976 14.976 -16.128 25.728 -31.376 25.728h-43.52 c-15.248 0 -28.384 -10.768 -31.376 -25.728l-9.824 -49.04c-7.088 -2.464 -13.968 -5.36 -20.624 -8.576L130.752 392.384 C125.328 396 119.152 397.76 113.008 397.76c-8.272 0 -16.448 -3.184 -22.64 -9.376L59.6 357.6c-10.784 -10.784 -12.464 -27.68 -4 -40.368l27.76 -41.664 c-3.232 -6.672 -6.112 -13.552 -8.576 -20.64L25.728 245.12C10.768 242.128 0 228.992 0 213.744v-43.52c0 -15.248 10.768 -28.4 25.728 -31.376 l49.04 -9.84c2.464 -7.088 5.36 -13.968 8.576 -20.624L55.6 66.72c-8.464 -12.688 -6.784 -29.6 4 -40.368l30.784 -30.784 c6.192 -6.192 14.368 -9.376 22.64 -9.376c6.144 0 12.336 1.776 17.728 5.376l41.664 27.776c6.672 -3.248 13.552 -6.128 20.64 -8.592 l9.808 -49.024c2.992 -14.976 16.128 -25.744 31.376 -25.744h43.52c15.248 0 28.4 10.784 31.376 25.744l9.84 49.024 c7.088 2.464 13.968 5.376 20.624 8.592l41.664 -27.776c5.408 -3.6 11.6 -5.376 17.712 -5.376c8.288 0 16.464 3.184 22.656 9.376 l30.784 30.784c10.784 10.784 12.464 27.68 4 40.368l-27.776 41.664c3.248 6.688 6.128 13.568 8.592 20.656l49.024 9.808 C501.216 141.808 512 154.976 512 170.224v43.52C512 228.992 501.216 242.128 486.256 245.12zM430.944 160.4 c-11.12 -2.224 -20.224 -10.16 -23.936 -20.88c-2.064 -5.904 -4.464 -11.632 -7.152 -17.184c-4.976 -10.224 -4.128 -22.288 2.16 -31.712l27.776 -41.664 l-30.784 -30.784l-41.664 27.776c-5.344 3.568 -11.536 5.376 -17.744 5.376c-4.752 0 -9.536 -1.056 -13.936 -3.184 c-5.568 -2.688 -11.28 -5.12 -17.216 -7.184c-10.688 -3.712 -18.624 -12.816 -20.848 -23.936l-9.84 -49.056h-43.52l-9.808 49.056 c-2.224 11.12 -10.16 20.224 -20.864 23.936c-5.904 2.064 -11.648 4.464 -17.2 7.152c-4.416 2.16 -9.184 3.216 -13.952 3.216 c-6.224 0 -12.4 -1.808 -17.744 -5.376l-41.664 -27.776l-30.784 30.784l27.76 41.664c6.288 9.44 7.104 21.504 2.192 31.68 c-2.688 5.568 -5.104 11.28 -7.168 17.216c-3.712 10.688 -12.832 18.624 -23.936 20.848l-49.04 9.84L32 213.744l49.056 9.808 c11.104 2.224 20.224 10.16 23.936 20.864c2.064 5.904 4.448 11.648 7.152 17.2c4.96 10.208 4.128 22.272 -2.176 31.696L82.224 334.976 L112.992 365.76l41.664 -27.76C160 334.432 166.192 332.624 172.4 332.624c4.752 0 9.52 1.056 13.936 3.184c5.552 2.688 11.28 5.104 17.2 7.168 c10.704 3.712 18.64 12.832 20.864 23.936l9.824 49.04l43.52 0.016l9.808 -49.056c2.224 -11.104 10.16 -20.224 20.88 -23.936 c5.904 -2.064 11.632 -4.448 17.184 -7.152c4.432 -2.144 9.184 -3.2 13.968 -3.2c6.224 0 12.4 1.808 17.744 5.376l41.664 27.76l30.784 -30.784 l-27.776 -41.664c-6.288 -9.44 -7.088 -21.488 -2.192 -31.68c2.688 -5.552 5.12 -11.28 7.184 -17.2c3.712 -10.704 12.816 -18.64 23.936 -20.864 l49.024 -9.824L480 170.224L430.944 160.4zM256 303.984c-61.84 0 -112 -50.16 -112 -112c0 -61.856 50.16 -112 112 -112s112 50.16 112 112C368 253.824 317.84 303.984 256 303.984zM256 93.968c-54.112 0 -98 43.904 -98 98c0 54.112 43.888 98 98 98c54.096 0 98 -43.888 98 -98 C354 137.872 310.096 93.968 256 93.968zM256 255.984c-35.36 0 -64 -28.64 -64 -64c0 -35.344 28.64 -64 64 -64c35.344 0 64 28.656 64 64C320 227.328 291.344 255.984 256 255.984zM256 143.968c-26.496 0 -48 21.504 -48 48c0 26.496 21.504 48 48 48s48 -21.504 48 -48C304 165.472 282.496 143.968 256 143.968z"/><glyph unicode="" glyph-name="shop1" horiz-adv-x="512" d="M502.4 268.8l-48 63.968c-1.872 2.512 -4.096 4.688 -6.4 6.768V416c0 17.664 -14.336 32 -32 32H96 C78.32 448 64 433.664 64 416v-76.48C61.696 337.456 59.472 335.296 57.6 332.8l-47.984 -63.984C3.408 260.56 0 250.336 0 240v-16c0 -26.464 21.536 -48 48 -48h0v-208 c0 -17.664 14.336 -32 32 -32h352c17.664 0 32 14.336 32 32V176l0 0c26.464 0 48 21.536 48 48v16C512 250.336 508.592 260.56 502.4 268.8zM416 416v-64H96h0V416H416zM163.088 208H96.064l64 112h35.024L163.088 208zM211.744 320H248v-112h-68.256L211.744 320zM264 320h36.256l32 -112H264V320zM316.88 320h35.024l64 -112h-67.024 L316.88 320zM32 224v16c0 3.472 1.12 6.832 3.2 9.6l48 64C86.224 317.632 90.96 320 96 320h45.632l-64 -112H48C39.168 208 32 215.152 32 224zM320 -32h-120V128 H320V-32zM432 -32h-96V128c0 8.848 -7.184 16 -16 16h-120c-8.832 0 -16 -7.152 -16 -16v-160H80V176h352V-32zM480 224c0 -8.848 -7.152 -16 -16 -16h-29.664l-64 112H416l0 0 c5.024 0 9.776 -2.368 12.784 -6.4l48 -64C478.88 246.832 480 243.472 480 240V224z"/><glyph unicode="" glyph-name="small56" horiz-adv-x="512" d="M240 288C240 296.836556 247.163444 304 256 304C264.836556 304 272 296.836556 272 288C272 279.163444 264.836556 272 256 272C247.163444 272 240 279.163444 240 288ZM240 96C240 104.836556 247.163444 112 256 112C264.836556 112 272 104.836556 272 96C272 87.163444 264.836556 80 256 80C247.163444 80 240 87.163444 240 96ZM144 192C144 200.836556 151.163444 208 160 208C168.836556 208 176 200.836556 176 192C176 183.163444 168.836556 176 160 176C151.163444 176 144 183.163444 144 192ZM336 192C336 200.836556 343.163444 208 352 208C360.836556 208 368 200.836556 368 192C368 183.163444 360.836556 176 352 176C343.163444 176 336 183.163444 336 192ZM160 124.128C160 136.836556 167.163444 144 188.112 144C184.836556 144 192 136.836556 192 124.128C192 119.163444 184.836556 112 188.112 112C167.163444 112 160 119.163444 160 124.128ZM160 259.888C160 280.836556 167.163444 288 188.112 288C184.836556 288 192 280.836556 192 259.888C192 263.163444 184.836556 256 188.112 256C167.163444 256 160 263.163444 160 259.888ZM304 124.128C304 136.836556 311.163444 144 323.872 144C328.836556 144 336 136.836556 336 124.128C336 119.163444 328.836556 112 323.872 112C311.163444 112 304 119.163444 304 124.128ZM416 224c-1.12 0 -2.064 -0.528 -3.152 -0.64c-5.568 27.92 -18.72 52.896 -36.752 73.504L353.12 421.856 C350.32 437.008 337.088 448 321.664 448h-128c-15.424 0 -28.64 -11.008 -31.472 -26.16l-22.4 -120.784C112.912 272.464 96 234.368 96 192 c0 -41.328 16.224 -78.48 41.936 -106.848l22.592 -123.008C163.344 -52.992 176.576 -64 192 -64h128c15.408 0 28.624 11.008 31.472 26.16l22.784 122.912 c19.024 20.976 32.848 46.72 38.592 75.6C413.936 160.528 414.88 160 416 160c17.664 0 32 14.336 32 32C448 209.68 433.664 224 416 224zM193.664 416h128 l16 -86.192C314.032 343.552 286.976 352 257.664 352c-29.296 0 -56.368 -8.448 -80 -22.192L193.664 416zM320 -32h-128l-16 86.192 C199.616 40.464 226.688 32 256 32c29.296 0 56.384 8.464 80 22.192L320 -32zM256 64c-70.576 0 -128 57.44 -128 128c0 70.576 57.424 128 128 128 c70.576 0 128 -57.424 128 -128C384 121.44 326.56 64 256 64zM335.056 271.584c-1.936 1.936 -5.056 2.096 -7.248 0.336l-83.072 -68.56C241.68 200.288 240 196.224 240 191.872 c0 -4.208 1.632 -8.192 4.624 -11.168s7.008 -4.64 11.312 -4.672c4 0.032 8.16 1.52 11.184 4.432l29.568 35.6l38.816 48.336 C337.184 266.528 336.992 269.648 335.056 271.584z"/><glyph unicode="" glyph-name="small57" horiz-adv-x="512" d="M352.032 448c-88.368 0 -160 -71.648 -160 -160c0 -20.56 4.304 -40.016 11.408 -58.064L9.056 35.568 C3.44 29.936 -0.032 24.592 -0.032 16v-48c0 -17.12 14.864 -32 32 -32h48c8.576 0 14 3.44 19.616 9.024L122.544 -32h37.488c17.664 0 32 14.336 32 32 v32h32c17.664 0 32 14.336 32 32v37.504l37.904 37.936C312 132.32 331.44 128 352.032 128c88.336 0 160 71.648 160 160S440.368 448 352.032 448zM352.032 160c-23.68 0 -45.632 6.88 -64.656 18.112l-5.504 -5.488l-18 -18l-30.48 -30.496c-6 -6 -9.376 -14.128 -9.376 -22.624V64h-32 c-17.664 0 -32 -14.32 -32 -32v-32H122.544c-8.48 0 -16.624 -3.376 -22.624 -9.376l-22.688 -22.688L32.016 -32l-0.048 45.6l186.64 186.32 c0 0 0 -0.016 0.016 -0.032l23.504 23.504c-11.232 19.024 -18.112 40.96 -18.112 64.64c0 70.688 57.328 128 128 128s128 -57.312 128 -128S422.72 160 352.032 160zM445.088 316.176c-17.936 24.992 -39.776 46.8 -64.88 64.864C376.128 384 370.848 384.736 366.096 383.072 c-22.224 -7.824 -37.44 -23.024 -45.216 -45.248C320.288 336.16 320 334.432 320 332.72c0 -3.184 0.992 -6.336 2.912 -9.008 c18 -25.024 39.808 -46.848 64.848 -64.848c4.112 -2.944 9.344 -3.696 14.112 -2.048c22.256 7.776 37.472 23.008 45.28 45.248 c0.576 1.664 0.88 3.392 0.88 5.104C448 310.352 447.008 313.504 445.088 316.176zM397.088 271.84c-23.664 16.992 -44.256 37.6 -61.12 60.688 c6.192 17.648 17.776 29.232 34.912 35.536c23.664 -17.04 44.224 -37.584 61.056 -60.976C425.68 289.568 414.128 278.048 397.088 271.84z"/><glyph unicode="" glyph-name="small58" horiz-adv-x="512" d="M469.344 400H400V432c0 8.848 -7.152 16 -16 16s-16 -7.152 -16 -16v-32h-96V432c0 8.848 -7.168 16 -16 16s-16 -7.152 -16 -16v-32H144V432 c0 8.848 -7.168 16 -16 16S112 440.848 112 432v-32H42.672C19.104 400 0 380.912 0 357.344v-378.672C0 -44.896 19.104 -64 42.672 -64h426.672 C492.912 -64 512 -44.896 512 -21.328V357.344C512 380.912 492.912 400 469.344 400zM480 -21.328C480 -27.216 475.216 -32 469.344 -32H42.672 C36.784 -32 32 -27.216 32 -21.328V357.344C32 363.216 36.784 368 42.672 368H112v-32c0 -8.848 7.168 -16 16 -16s16 7.152 16 16V368h96v-32c0 -8.848 7.168 -16 16 -16 s16 7.152 16 16V368h96v-32c0 -8.848 7.152 -16 16 -16s16 7.152 16 16V368h69.344C475.216 368 480 363.216 480 357.344V-21.328zM112 256l64 0l0 -48l-64 0ZM112 176l64 0l0 -48l-64 0ZM112 96l64 0l0 -48l-64 0ZM224 96l64 0l0 -48l-64 0ZM224 176l64 0l0 -48l-64 0ZM224 256l64 0l0 -48l-64 0ZM336 96l64 0l0 -48l-64 0ZM336 176l64 0l0 -48l-64 0ZM336 256l64 0l0 -48l-64 0Z"/><glyph unicode="" glyph-name="small59" horiz-adv-x="512" d="M397.312 264.88C394.336 269.328 389.344 272 384 272h-16c-8.848 0 -16 -7.152 -16 -16v-96c0 -8.848 7.152 -16 16 -16h64 c8.848 0 16 7.152 16 16v24c0 3.152 -0.944 6.256 -2.688 8.88L397.312 264.88zM432 160h-64v96h16l48 -72V160zM503.936 202.624l-64 96C431.008 312.016 416.064 320 400 320h-64V352c0 26.464 -21.536 48 -48 48H48C21.536 400 0 378.464 0 352v-176 c0 -26.464 21.536 -48 48 -48h0v-48c0 -26.464 21.536 -48 48 -48h18.272c7.152 -27.536 32 -48 61.744 -48c29.712 0 54.56 20.464 61.712 48h84.512 c7.152 -27.536 32 -48 61.744 -48c29.712 0 54.56 20.464 61.712 48H464c26.464 0 48 21.536 48 48v96C512 185.504 509.216 194.72 503.936 202.624zM48 160 c-8.832 0 -16 7.152 -16 16V352c0 8.848 7.168 16 16 16h240c8.848 0 16 -7.152 16 -16v-32v-32v-112c0 -8.848 -7.152 -16 -16 -16H48zM176.016 16 c-17.68 0 -32 14.336 -32 32s14.32 32 32 32c17.664 0 32 -14.336 32 -32S193.664 16 176.016 16zM384 16c-17.68 0 -32 14.336 -32 32s14.32 32 32 32 c17.664 0 32 -14.336 32 -32S401.664 16 384 16zM480 80c0 -8.848 -7.152 -16 -16 -16h-18.288c-7.152 27.536 -32 48 -61.712 48c-29.744 0 -54.592 -20.464 -61.744 -48 h-84.512c-7.152 27.536 -32 48 -61.712 48c-29.744 0 -54.592 -20.464 -61.744 -48H96c-8.832 0 -16 7.152 -16 16v48h208c26.464 0 48 21.536 48 48v112h64 c5.344 0 10.336 -2.672 13.312 -7.12l64 -96C479.056 182.256 480 179.152 480 176V80z"/><glyph unicode="" glyph-name="small60" horiz-adv-x="512" d="M414.624 237.712C407.632 310.72 346.848 368 272 368 c-57.904 0 -107.472 -34.368 -130.336 -83.68C134.784 286.496 127.616 288 120.016 288c-39.76 0 -72 -32.256 -72 -72c0 -7.904 1.584 -15.376 3.936 -22.464 c-30.928 -18.032 -51.936 -51.12 -51.936 -89.504c0 -57.44 46.56 -104 104 -104V0H392v0.032c66.288 0 120 53.712 120 120 C512 178.528 470.064 227.12 414.624 237.712zM392 32.032V32H104.016c-39.696 0.032 -72 32.32 -72 72.032c0 25.6 13.488 48.72 36.064 61.872 c21.936 12.592 23.44 15.088 14.24 37.712c-1.552 4.656 -2.304 8.704 -2.304 12.368c0 22.064 17.936 40 40 40c0 0 10.496 0.752 21.648 -3.68 c18.352 -7.312 20.352 -0.32 29.024 18.544C189.04 310.416 228.8 336 272 336c57.6 0 105.216 -43.568 110.784 -101.344c1.968 -22.912 1.968 -22.912 25.84 -28.368 C450 198.384 480 162.096 480 120.032C480 71.504 440.528 32.032 392 32.032z"/><glyph unicode="" glyph-name="small61" horiz-adv-x="512" d="M256 448C158.784 448 80 369.216 80 272c0 -64.496 59.008 -132.848 80.496 -192.88C192.544 -10.4 188.992 -64 256 -64 c68 0 63.44 53.344 95.504 142.752C373.056 138.912 432 208 432 272C432 369.216 353.184 448 256 448zM297.472 13.184l-79.328 -9.904 c-2.832 8.192 -5.872 17.776 -9.568 30.288c-0.048 0.16 -0.112 0.336 -0.144 0.496l99.008 12.368c-1.408 -4.72 -2.912 -9.68 -4.224 -14.128 C301.12 25.12 299.248 18.88 297.472 13.184zM203.776 49.472c-2.912 9.632 -6.192 19.776 -9.84 30.528h124.256 c-1.968 -5.744 -3.936 -11.504 -5.632 -16.944L203.776 49.472zM256 -32c-16.208 0 -23.664 1.872 -31.952 20l67.808 8.496 C282.032 -29.968 274.88 -32 256 -32zM330.752 112h-149.328c-7.968 17.28 -17.536 34.56 -26.976 51.472C133.568 200.832 112 239.472 112 272 c0 79.408 64.592 144 144 144c79.408 0 144 -64.592 144 -144c0 -32.288 -21.6 -71.136 -42.496 -108.72C348.16 146.432 338.656 129.184 330.752 112zM256 368c-52.944 0 -96 -43.056 -96 -96c0 -4.416 3.584 -8 8 -8S176 267.584 176 272c0 44.112 35.888 80 80 80 c4.416 0 8 3.584 8 8S260.4 368 256 368z"/><glyph unicode="" glyph-name="sound" horiz-adv-x="512" d="M431.968 223.952H432c0.032 -4.384 3.6 -7.936 8 -7.936S448 219.584 448 224c0 0.048 -0.032 0.08 -0.032 0.128 c-0.096 88.144 -71.44 159.568 -159.568 159.776C288.288 383.936 288.16 384 288 384c-4.432 0 -8 -3.584 -8 -8c0 -4.4 3.568 -7.984 7.968 -8v-0.064 C367.376 367.952 431.968 303.344 431.968 223.952zM145.936 433.952C136.768 443.136 124.48 448 111.984 448C105.808 448 99.584 446.816 93.648 444.352C75.696 436.928 64 419.424 64 400 L63.984 179.888l-49.92 -49.952c-18.752 -18.72 -18.752 -49.12 0 -67.872l112 -112C135.44 -59.312 147.712 -64 160 -64s24.56 4.688 33.936 14.064L243.872 0 h220.096c19.44 0 36.944 11.68 44.336 29.632c7.44 17.936 3.344 38.592 -10.4 52.32L145.936 433.952zM221.248 22.624l-49.936 -49.936 C167.232 -31.376 162.464 -32 160 -32s-7.232 0.624 -11.312 4.688l-112 112C32.608 88.784 32 93.536 32 96s0.608 7.248 4.688 11.312l49.92 49.936 c0.144 0.16 0.192 0.336 0.336 0.496l134.8 -134.816C221.6 22.816 221.392 22.784 221.248 22.624zM243.872 32 c-2.48 0 -4.784 -0.88 -7.152 -1.408L94.56 172.752c0.544 2.368 1.424 4.672 1.424 7.136L96 372.624L436.592 32H243.872zM478.752 41.872 C476.288 35.872 470.464 32 463.968 32h-4.752L96 395.248V400c0 6.496 3.872 12.304 9.872 14.784C107.84 415.6 109.888 416 111.984 416 c4.288 0 8.304 -1.664 11.312 -4.672l351.984 -352.016C479.872 54.72 481.248 47.872 478.752 41.872zM287.968 416v-0.064c105.872 0 192 -86.128 192 -192H480C480.032 215.136 487.184 208 496 208c8.848 0 16 7.152 16 16 c0 0.048 -0.032 0.08 -0.032 0.128C511.872 347.616 411.872 447.696 288.4 447.92C288.288 447.936 288.16 448 288 448c-8.848 0 -16 -7.152 -16 -16 C272 423.184 279.152 416.016 287.968 416z"/><glyph unicode="" glyph-name="stack" horiz-adv-x="512" d="M510.784 152.72L446.752 392.816C442.88 406.464 430.224 416 416 416H256H96C81.76 416 69.12 406.464 65.248 392.816L1.216 152.72 C0.4 149.808 0 146.88 0 144v-112c0 -35.344 28.656 -64 64 -64h384c35.344 0 64 28.656 64 64v112C512 146.88 511.6 149.808 510.784 152.72zM480 32 c0 -17.632 -14.368 -32 -32 -32H64c-17.648 0 -32 14.368 -32 32v112L96.016 384.016h319.952L480 144V32zM379.872 352H132.128c-7.248 0 -13.6 -4.88 -15.472 -11.888l-55.12 -192c-1.264 -4.816 -0.256 -9.936 2.784 -13.872 S72.032 128 76.992 128h46.496h18.256h8.336l23.152 -46.32C178.672 70.848 189.744 64 201.872 64h108.256c12.128 0 23.184 6.848 28.624 17.68 L361.904 128h8.336h18.256h46.496c4.976 0 9.664 2.32 12.688 6.256s4.032 9.056 2.784 13.872l-55.12 192C393.472 347.136 387.12 352 379.872 352zM388.496 160h-26.592c-12.192 0 -23.152 -6.752 -28.624 -17.68L310.128 96h-108.256l-23.152 46.32C173.248 153.248 162.288 160 150.096 160H123.504H85.344 L132.128 336h247.744l46.784 -176H388.496z"/><glyph unicode="" glyph-name="study" horiz-adv-x="512" d="M512 0c0 -17.664 -14.336 -32 -32 -32c-17.68 0 -32 14.336 -32 32s14.32 64 32 64C497.664 64 512 17.664 512 0zM464 240v-144 c0 -8.848 7.152 -16 16 -16c8.832 0 16 7.152 16 16v144c0 8.848 -7.168 16 -16 16C471.152 256 464 248.848 464 240zM474.784 273.216L432 263.344V128 c0 -42.464 -48.608 -80 -176 -80S80 85.536 80 128v135.344l-42.8 9.872C15.312 278.272 0 297.504 0 320s15.296 41.728 37.216 46.784l207.984 48 C248.912 415.616 252.464 416 256 416s7.088 -0.384 10.576 -1.168l208.208 -48.048C496.688 361.728 512 342.496 512 320S496.688 278.272 474.784 273.216zM400 255.952l-133.216 -30.736C263.104 224.384 259.536 224 256 224s-7.104 0.384 -10.592 1.168L112 255.952V128c0 -17.68 48 -48 144 -48s144 30.32 144 48V255.952zM467.6 304.4C474.848 306.08 480 312.544 480 320s-5.152 13.92 -12.4 15.6l-208 48L256 384l-3.6 -0.4l-208 -48C37.136 333.92 32 327.456 32 320 s5.136 -13.92 12.4 -15.6l208 -48L256 256l3.6 0.4L467.6 304.4z"/><glyph unicode="" glyph-name="t1" horiz-adv-x="512" d="M500 344.992l-80 64C414.32 413.536 407.248 416 400 416H112 C104.736 416 97.68 413.536 92 408.992l-80 -64C1.536 336.608 -2.592 322.592 1.648 309.872l32 -96c3.152 -9.456 10.544 -16.912 19.984 -20.144 C56.992 192.576 60.512 192 64 192c5.568 0 11.088 1.456 16 4.288V0c0 -17.664 14.336 -32 32 -32h288c17.664 0 32 14.336 32 32V196.288 C436.912 193.456 442.432 192 448 192c3.504 0 7.008 0.576 10.368 1.728c9.44 3.232 16.816 10.688 19.968 20.144l32 96 C514.592 322.592 510.464 336.608 500 344.992zM316.064 384C307.216 365.424 283.776 352 256 352c-27.776 0 -51.232 13.424 -60.064 32H316.064zM448 224l-48 32 v-256H112V256l-48 -32L32 320l80 64h66.832C187.744 356.448 218.768 336 256 336c37.216 0 68.256 20.448 77.152 48H400l80 -64L448 224z"/><glyph unicode="" glyph-name="tag6" horiz-adv-x="512" d="M502.256 225.872l-80 128c-11.68 18.704 -32.192 30.08 -54.256 30.08H64 c-35.344 0 -64 -28.656 -64 -64v-256c0 -35.344 28.656 -64 64 -64h304c22.064 0 42.56 11.376 54.256 30.096l80 128C515.248 178.768 515.248 205.12 502.256 225.872zM475.12 175.008l-80 -128.032c-5.872 -9.408 -16.032 -15.024 -27.12 -15.024H64c-17.648 0 -32 14.368 -32 32v256c0 17.648 14.352 32 32 32h304 c11.088 0 21.248 -5.632 27.12 -15.024l80 -128C481.568 198.608 481.568 185.296 475.12 175.008zM368 239.952c-26.528 0 -48 -21.488 -48 -48c0 -26.512 21.472 -48 48 -48 c26.496 0 48 21.504 48 48C416 218.464 394.496 239.952 368 239.952zM368 159.936c-17.68 0 -32 14.336 -32 32c0 17.664 14.32 32 32 32 c17.664 0 32 -14.336 32 -32C400 174.288 385.664 159.936 368 159.936z"/><glyph unicode="" glyph-name="tv1" horiz-adv-x="512" d="M493.664 346.88c-3.072 13.024 -14 22.752 -27.28 24.352C396.624 379.712 325.872 384 256.08 384 C186.304 384 115.552 379.712 45.792 371.248C32.512 369.632 21.616 359.92 18.528 346.88c-24.464 -102.768 -24.464 -206.976 0 -309.76 c3.088 -13.024 13.984 -22.752 27.264 -24.336c33.616 -4.096 67.456 -7.088 101.296 -9.216C145.264 2.4 144.08 1.216 144.08 0c0 -8.848 50.144 -16 112 -16 c61.856 0 112 7.152 112 16c0 1.216 -1.168 2.4 -3.008 3.568c33.84 2.128 67.68 5.12 101.28 9.216c13.28 1.6 24.208 11.312 27.28 24.336 C518.128 139.904 518.128 244.112 493.664 346.88zM462.528 44.528c-137.632 -16.688 -275.264 -16.688 -412.88 0c-23.408 98.32 -23.408 196.64 0 294.944 c137.632 16.704 275.264 16.704 412.88 0C485.936 241.168 485.936 142.848 462.528 44.528zM224.08 251.456c0 -4.416 -3.6 -8.128 -8 -8.288 l-59.984 -4.112c-4.368 -0.448 -8.432 -4.384 -9.024 -8.736L144.4 200C144.224 195.6 140.48 192 136.112 192c-4.384 0 -7.792 3.6 -7.568 8 l4.88 44.576c0.736 4.352 4.912 8.32 9.28 8.816l73.376 5.744C220.496 259.312 224.08 255.872 224.08 251.456zM424.096 256 c13.248 0 24 10.752 24 24S437.344 304 424.096 304s-24 -10.752 -24 -24S410.848 256 424.096 256zM424.096 288c4.4 0 8 -3.6 8 -8 s-3.6 -8 -8 -8s-8 3.6 -8 8S419.68 288 424.096 288zM464.096 136c0 -4.4 -3.6 -8 -8 -8h-48c-4.432 0 -8 3.6 -8 8 c0 4.432 3.568 8 8 8h48C460.496 144 464.096 140.432 464.096 136zM464.096 184c0 -4.4 -3.6 -8 -8 -8h-48 c-4.432 0 -8 3.6 -8 8c0 4.416 3.568 8 8 8h48C460.496 192 464.096 188.416 464.096 184zM448.096 88 c0 -4.4 -3.6 -8 -8 -8h-48c-4.432 0 -8 3.6 -8 8c0 4.432 3.568 8 8 8h48C444.496 96 448.096 92.432 448.096 88zM354.72 310.016c-43.312 8.912 -87.28 13.424 -130.64 13.424S136.768 318.928 93.44 310.016C87.84 308.864 83.264 304.8 81.456 299.344 c-23.072 -70.096 -23.072 -141.168 0 -211.264c1.792 -5.44 6.368 -9.504 11.984 -10.656C136.768 68.528 180.72 64 224.08 64 c43.344 0 87.328 4.528 130.64 13.44c5.632 1.152 10.192 5.216 12 10.656c23.056 70.096 23.056 141.168 0 211.264 C364.912 304.8 360.336 308.864 354.72 310.016zM351.504 93.088c-84.944 -17.44 -169.904 -17.44 -254.832 0c-22.096 67.072 -22.096 134.16 0 201.264 c84.944 17.456 169.904 17.456 254.832 0C373.6 227.264 373.6 160.192 351.504 93.088z"/><glyph unicode="" glyph-name="user12" horiz-adv-x="512" d="M480.768 8.496c-2.992 1.984 -57.232 37.552 -137.936 55.024c29.6 37.504 48.608 87.936 56.688 121.52 c11.216 46.528 6.864 137.568 -37.824 194.304C335.568 412.496 299.024 430 256 430S176.432 412.48 150.336 379.328 c-44.688 -56.72 -49.024 -147.76 -37.824 -194.288c8.08 -33.568 27.072 -84.016 56.688 -121.52c-80.704 -17.456 -134.944 -53.04 -137.92 -55.024 c-10.896 -7.264 -15.776 -20.832 -11.968 -33.344c3.776 -12.576 15.36 -21.168 28.464 -21.168h416.496c13.104 0 24.656 8.592 28.464 21.152 C496.544 -12.32 491.664 1.248 480.768 8.496zM139.424 270.128C147.536 333.776 184 400.256 256 400.256s108.48 -66.496 116.592 -130.144 c8.816 -66.272 -11.664 -135.632 -53.12 -188.16l-4.848 -6.16c-35.472 -40.752 -81.744 -40.752 -117.2 0l-4.864 6.16 C151.136 134.448 130.576 203.888 139.424 270.128zM47.744 -16.256c2.048 1.376 52.448 34.416 127.712 50.688l36.944 7.984 c13.2 -8.656 27.664 -14.064 43.584 -14.064c15.936 0 30.384 5.392 43.584 14.064l36.944 -7.984c74.672 -16.16 124.896 -48.832 127.712 -50.688H47.744z"/><glyph unicode="" glyph-name="vynil" horiz-adv-x="512" d="M351.216 429.6c-131.232 52.544 -280.24 -11.232 -332.8 -142.48 c-52.576 -131.264 11.232 -280.288 142.48 -332.832c131.248 -52.56 280.256 11.232 332.816 142.48C546.288 228.032 482.464 377.024 351.216 429.6zM172.8 -16.016C58.144 29.904 2.208 160.528 48.112 275.2c45.92 114.656 176.56 170.608 291.232 124.672c114.656 -45.904 170.592 -176.544 124.688 -291.2 C418.096 -6 287.472 -61.92 172.8 -16.016zM267.984 221.648c-16.4 6.576 -35.04 -1.408 -41.616 -17.808 s1.408 -35.024 17.792 -41.6c16.4 -6.576 35.056 1.408 41.616 17.792C292.336 196.432 284.368 215.056 267.984 221.648zM250.112 177.072 c-8.192 3.296 -12.176 12.608 -8.912 20.816c3.296 8.192 12.624 12.176 20.816 8.912c8.176 -3.28 12.16 -12.608 8.896 -20.816 C267.632 177.792 258.304 173.808 250.112 177.072zM291.744 281.04c-49.216 19.712 -105.088 -4.224 -124.8 -53.424 c-19.712 -49.216 4.224 -105.088 53.424 -124.8c49.216 -19.712 105.088 4.208 124.8 53.424S340.976 261.344 291.744 281.04zM232.288 132.528 c-32.768 13.104 -48.736 50.448 -35.632 83.2c13.12 32.752 50.432 48.736 83.184 35.632c32.784 -13.12 48.752 -50.464 35.664 -83.216 C302.368 135.392 265.04 119.392 232.288 132.528zM374.912 144.352c1.632 4.096 -0.368 8.752 -4.464 10.384 c-4.096 1.664 -8.752 -0.336 -10.4 -4.448v0.016c-11.504 -28.736 -33.568 -50.064 -59.904 -61.344c-4.032 -1.728 -5.936 -6.432 -4.192 -10.48 c1.744 -4.08 6.432 -5.952 10.496 -4.224c0.16 0.064 0.224 0.192 0.336 0.24c29.968 12.96 55.024 37.232 68.096 69.856H374.912zM429.84 130.976c-4.096 1.648 -8.752 -0.352 -10.4 -4.448 c-18.064 -45.12 -52.72 -78.64 -94.128 -96.368c-4.032 -1.728 -5.936 -6.432 -4.192 -10.496c1.744 -4.08 6.432 -5.936 10.496 -4.208 c0.192 0.096 0.336 0.272 0.528 0.352c44.944 19.408 82.56 55.84 102.16 104.768C435.936 124.672 433.936 129.328 429.84 130.976zM400.128 142.864c-4.096 1.648 -8.752 -0.336 -10.4 -4.448 c-14.752 -36.928 -43.088 -64.336 -76.992 -78.848h0.032c-4.064 -1.744 -5.968 -6.448 -4.224 -10.512s6.432 -5.936 10.496 -4.208 c0.16 0.08 0.256 0.224 0.432 0.32c37.44 16.176 68.784 46.512 85.12 87.296C406.224 136.56 404.224 141.216 400.128 142.864zM216.208 305.408c-1.744 4.08 -6.448 5.936 -10.512 4.192 c-0.144 -0.048 -0.224 -0.176 -0.336 -0.224c-29.968 -12.96 -55.04 -37.248 -68.096 -69.856H137.248C135.6 235.408 137.6 230.768 141.696 229.12 c4.112 -1.648 8.768 0.352 10.4 4.448h0.016c11.488 28.704 33.552 50.048 59.888 61.312C216.064 296.64 217.952 301.328 216.208 305.408zM191.008 364.24c-1.744 4.064 -6.448 5.936 -10.512 4.208 c-0.192 -0.08 -0.336 -0.256 -0.496 -0.336c-44.96 -19.424 -82.56 -55.84 -102.16 -104.768c-1.664 -4.128 0.336 -8.784 4.448 -10.416 c4.096 -1.648 8.752 0.336 10.4 4.448C110.768 302.48 145.408 336 186.816 353.728C190.864 355.488 192.752 360.176 191.008 364.24zM199.408 324.336c4.048 1.728 5.952 6.416 4.208 10.496 c-1.744 4.048 -6.448 5.936 -10.512 4.192c-0.16 -0.064 -0.256 -0.224 -0.416 -0.288c-37.456 -16.192 -68.8 -46.56 -85.12 -87.328 C105.904 247.296 107.92 242.656 112 240.992c4.096 -1.632 8.752 0.336 10.4 4.448c14.768 36.928 43.12 64.352 76.992 78.848V324.336z"/><glyph unicode="" glyph-name="wallet" horiz-adv-x="512" d="M256 128C256 145.673112 270.326888 160 288 160C305.673112 160 320 145.673112 320 128C320 110.326888 305.673112 96 288 96C270.326888 96 256 110.326888 256 128ZM464.016 240C464 240 464 240 464.016 240L464 336V344V384c0 26.512 -21.504 48 -48 48h-64H88C39.472 432 0 392.512 0 344v-320 C0 -24.512 39.472 -64 88 -64h288c48.512 0 88 39.488 88 88V48c0 0 0 0 0.016 0C527.984 96.016 527.984 191.984 464.016 240zM88 400H352h64 c8.816 0 16 -7.168 16 -16v-40V336v-50.944C426.976 286.848 421.632 288 416 288h-0.016V304V336V368c0 8.848 -7.168 16 -16 16h-336c-8.832 0 -16 -7.152 -16 -16v-32 v-31.088C38.112 315.008 32 328.768 32 344C32 374.928 57.056 400 88 400zM399.984 352h-336V368h336V352zM399.984 336v-16h-336V336H399.984zM399.984 304v-16H352H88 c-8.64 0 -16.704 2.112 -24 5.6V304H399.984zM432 24c0 -30.928 -25.072 -56 -56 -56h-288C57.056 -32 32 -6.928 32 24V276.176 C47.216 263.584 66.736 256 88 256H352h64c8.816 0 16 -7.168 16 -16v-32h-144c-44.192 0 -80 -35.808 -80 -80s35.824 -80 80 -80h144V24zM452.432 80H288 c-26.464 0 -48 21.536 -48 48s21.536 48 48 48h144c9.872 0.128 19.664 4.912 25.632 12.864c1.664 2.24 2.96 4.752 4 7.376 c0.144 0.352 0.4 0.624 0.528 0.992C473.664 182.144 480 163.648 480 144C480 119.392 470.064 96.56 452.432 80z"/><glyph unicode="" glyph-name="world5" horiz-adv-x="512" d="M248 448C111.024 448 0 336.976 0 200S111.024 -48 248 -48S496 63.024 496 200S384.976 448 248 448zM463.6 208 h-95.936c-0.88 35.44 -7.184 69.296 -18.368 100.288c21.6 9.008 41.568 20.992 59.776 35.152C441.44 307.104 461.68 259.92 463.6 208zM239.152 -15.552c-26.592 22.144 -48.896 50.896 -65.216 84.288c20.944 6.544 43.136 10.128 66.064 10.864v-95.184 C239.712 -15.584 239.44 -15.568 239.152 -15.552zM256.816 415.552c30.176 -25.12 54.8 -58.768 71.456 -98.016c-22.816 -7.792 -47.056 -12.32 -72.288 -13.12 V415.6C256.288 415.584 256.544 415.568 256.816 415.552zM283.472 412.832c44.16 -7.344 83.776 -27.968 114.624 -57.824 c-16.752 -12.848 -35.056 -23.728 -54.848 -31.968C328.688 357.552 308.256 388.064 283.472 412.832zM240 415.6v-111.184 c-25.232 0.816 -49.488 5.328 -72.288 13.12c16.656 39.248 41.28 72.896 71.456 98.016C239.456 415.568 239.712 415.584 240 415.6zM152.736 323.024 c-19.76 8.24 -38.08 19.12 -54.832 31.968c30.832 29.856 70.464 50.48 114.624 57.824C187.728 388.064 167.312 357.552 152.736 323.024zM161.68 302.784 C186.352 294.224 212.64 289.232 240 288.4V208H144.336C145.2 241.504 151.136 273.52 161.68 302.784zM240 192v-96.4 c-25.232 -0.768 -49.632 -4.896 -72.624 -12.304C153.52 116.288 145.344 153.04 144.336 192H240zM212.528 -12.832 c-39.568 6.576 -75.504 23.808 -104.72 48.832c15.76 10.928 32.8 20.176 51.008 27.2C172.768 34.272 191.024 8.592 212.528 -12.832zM256 -15.6 v95.184c22.912 -0.736 45.12 -4.32 66.064 -10.864c-16.336 -33.392 -38.624 -62.144 -65.216 -84.288C256.576 -15.568 256.288 -15.584 256 -15.6zM337.184 63.2c18.192 -7.024 35.216 -16.288 51.008 -27.2c-29.216 -25.008 -65.152 -42.256 -104.72 -48.832C304.976 8.592 323.216 34.272 337.184 63.2zM328.624 83.296c-23.008 7.408 -47.408 11.536 -72.624 12.304V192h95.664C350.656 153.04 342.464 116.288 328.624 83.296zM256 208V288.4 c27.344 0.832 53.632 5.808 78.32 14.368c10.528 -29.264 16.464 -61.28 17.344 -94.784H256zM86.944 343.44C105.152 329.28 125.12 317.296 146.704 308.288 C135.52 277.296 129.216 243.44 128.336 208H32.4C34.32 259.92 54.56 307.104 86.944 343.44zM32.4 192h95.936 c0.992 -40.88 9.536 -79.488 24.048 -114.192c-20.272 -7.904 -39.168 -18.432 -56.608 -30.896C58.208 84.304 34.496 135.424 32.4 192zM400.224 46.928 c-17.44 12.448 -36.336 22.992 -56.624 30.896c14.528 34.704 23.056 73.312 24.064 114.192h95.936C461.504 135.424 437.776 84.304 400.224 46.928z"/></font>
</defs>
</svg>
